找回密码

查看: 657|回复: 2

[战争] 铁道游击队 [彩色修复].Railway.Guerrilla.1956.WEB-DL.1080P.H264.AAC-TAG 3.08GB

[复制链接]
蓝光币
2048
发表于 2024-2-26 11:35:14 | 显示全部楼层 |阅读模式
铁道游击队 [彩色修复].Railway.Guerrilla.1956.WEB-DL.1080P.H264.AAC-TAG 3.08GB-1.jpg

◎译  名 Railway Guerrilla
◎片  名 铁道游击队
◎年  代 1956
◎产  地 中国大陆
◎类  别 战争
◎语  言 汉语普通话
◎上映日期 1956(中国大陆)
◎IMDb评星  ★★★★★★☆☆☆☆
◎IMDb评分  6.2/10 from 107 users
◎IMDb链接  https://www.imdb.com/title/tt0354964/
◎豆瓣评星 ★★★★☆
◎豆瓣评分 7.7/10 from 16,198 users
◎豆瓣链接 https://movie.douban.com/subject/1434172/
◎片  长 80分钟
◎导  演 赵明 / Ming Zhao
◎演  员 曹会渠 / Huiqu Cao | 饰 刘洪
      秦怡 / Yi Qin | 饰 芳林嫂
      冯喆 / Zhe Feng | 饰 李正
      冯奇 / Qi Feng | 饰 王强
      仲星火 / Xinghuo Zhong | 饰 彭亮
      陈说 / Shu Chen | 饰 岗村
      邓楠 / Nan Deng | 饰 鲁汉
      冯笑 / Xiao Feng | 饰 小坡
      李其珍 / Qizhen Li | 饰 游击队员丙
◎编  剧 知侠 / Zhixia Liu
◎音  乐 吕其明 / Qiming Lü
      李秉申 / Bingshen Li
◎摄  影 冯四知 / Sizhi Feng
◎美  术 张汉臣 / Hanchen Zhang
◎制片治理 徐进 / Jin Xu
◎音  效 陆仲伯 / Zhongbo Lu
◎现场殊效 周家生 / Jiasheng Zhou

◎简  介 

  抗日战争期间,鲁南临城、枣庄一带的铁线路上活跃着一支游击队,队员在大队长刘洪(曹会渠)、政委李正(冯奇)的带领构造下,配合主力军队赐与了日军繁重的冲击,被当地百姓亲热地称为“飞虎队”。
  日军想方想法狙击“飞虎队”,终使刘洪受伤,但刘洪是以得以被孀妇芳林嫂(秦怡)顾问,成 就一对爱人。刘洪伤愈后,配合李正批示作战,大北日军。大发雷霆的日军欲以肆意杀戮之法激愤刘洪,刘洪入彀,预备在微山湖与日军展开正面交锋,幸得李正实时劝止,“飞虎队”气力才得以保全。修整后的“飞虎队”将沿线日军悉数消灭,但芳林嫂却在履行侦察使命时被捕。

◎幕后揭秘

  影片描画了抗战时代一支活跃在铁线路上的游记队员的传奇履历,情节盘曲、险象环生,扣民气弦、令人沉迷,具有很高的观赏性。同时,影片也留意突出主旋律,充实展现了游击队员们的反动悲观主义精神。影片衬着严重氛围的同时,还留意穿插了抒怀的环节,反应了战士们朴实美好的心里天下。影片插曲旋律优美,朴实逼真,自问世后被广为传唱。
  1. General
  2. Complete name :铁道游击队(彩色修复).Railway.Guerrilla.1956.WEB-DL.1080P.H264.AAC.mp4
  3. Format : MPEG-4
  4. Format profile : Base Media
  5. Codec ID : isom (isom/iso2/avc1/mp41)
  6. File size : 3.08 GiB
  7. Duration : 1 h 25 min
  8. Overall bit rate : 5 170 kb/s
  9. Description : Packed by Bilibili XCoder v2.0.2
  10. Writing application : Lavf57.83.100

  11. Video
  12. ID : 1
  13. Format : AVC
  14. Format/Info : Advanced Video Codec
  15. Format profile : High@L5
  16. Format settings : CABAC / 6 Ref Frames
  17. Format settings, CABAC : Yes
  18. Format settings, Reference fra : 6 frames
  19. Codec ID : avc1
  20. Codec ID/Info : Advanced Video Coding
  21. Duration : 1 h 25 min
  22. Bit rate : 5 036 kb/s
  23. Width : 1 920 pixels
  24. Height : 1 080 pixels
  25. Display aspect ratio : 16:9
  26. Frame rate mode : Constant
  27. Frame rate : 25.000 FPS
  28. Color space : YUV
  29. Chroma subsampling : 4:2:0
  30. Bit depth : 8 bits
  31. Scan type : Progressive
  32. Bits/(Pixel*Frame) : 0.097
  33. Stream size : 3.00 GiB (97%)
  34. Color range : Limited
  35. Color primaries : BT.709
  36. Transfer characteristics : BT.709
  37. Matrix coefficients : BT.709
  38. Codec configuration box : avcC

  39. Audio
  40. ID : 2
  41. Format : AAC LC
  42. Format/Info : Advanced Audio Codec Low Complexity
  43. Codec ID : mp4a-40-2
  44. Duration : 1 h 25 min
  45. Bit rate mode : Constant
  46. Bit rate : 128 kb/s
  47. Channel(s) : 2 channels
  48. Channel layout : L R
  49. Sampling rate : 44.1 kHz
  50. Frame rate : 43.066 FPS (1024 SPF)
  51. Compression mode : Lossy
  52. Stream size : 78.2 MiB (2%)
  53. Default : Yes
  54. Alternate group : 1
复制代码








回复

使用道具 举报

蓝光币
0
发表于 2024-2-27 10:19:14 | 显示全部楼层
感谢万能的楼主
回复

使用道具 举报

蓝光币
308
发表于 2024-3-3 17:18:48 | 显示全部楼层
楼主发贴辛苦了,谢谢楼主分享!我觉得蓝光电影网是注册对了!
回复

使用道具 举报

懒得打字嘛,点击右侧快捷回复 【右侧内容,后台自定义】
您需要登录后才可以回帖 登录 | 立即加入

本版积分规则

Archiver| |网站地图

Copyright © 2024 Comsenz Inc. Powered by 蓝光电影网

本站内容由用户自主分享和转载自互联网,转载目的在于传递更多信息,并不代表本网赞同其观点和对其真实性负责。

如有侵权、违反国家法律政策行为,请联系我们,我们会第一时间及时清除和处理!

举报反馈邮箱:4k1080.com@gmail.com

快速回复 返回顶部 返回列表