找回密码

查看: 647|回复: 0

[全集] [2019][英国][真人秀]大世界之旅 第四季/伟大的旅程/歌朗途 第4季 [全4集][中字].The.Grand.Tour.S04.2019.2160p.AMZN.WEB-DL.DDP.5.1.HDR10Plus.HEVC-TAG 37.23GB

[复制链接]
蓝光币
1917
发表于 2024-2-26 13:11:42 | 显示全部楼层 |阅读模式
[2019][英国][真人秀]大天下之旅 第四时/巨大的旅程/歌朗途 第4季 [全4集][中字].The.Grand.Tour.S04.2019.2160p.AMZN.WEB-DL.DDP.5.1.HDR10Plus.HEVC-TAG 37.23GB-1.jpg

◎译  名 大天下之旅 第四时 / 巨大的旅程 / 歌朗途
◎片  名 The Grand Tour Season 4
◎年  代 2019
◎产  地 英国
◎类  别 冒险 / 活动 / 真人秀 / 脱口秀
◎语  言 英语
◎上映日期 2019-12-13(美国)
◎IMDb评星  ★★★★★★★★✦☆
◎IMDb评分  8.7/10 from 82,415 users
◎IMDb链接  https://www.imdb.com/title/tt5712554/
◎豆瓣评星 ★★★★★
◎豆瓣评分 9.6/10 from 2,560 users
◎豆瓣链接 https://movie.douban.com/subject/34454514/
◎单集片长 90分钟
◎集  数 4
◎演  员 杰里米·克拉克森 / Jeremy Clarkson
      詹姆斯·梅 / James May
      理查德·哈蒙德 / Richard Hammond
◎音  乐 艾米·艾什沃斯 / Amy Ashworth

◎简  介 

  《大天下之旅》是一档汽车展现和汽车常识科普节目。节目经过展现“三贱客”在加利福尼亚沙漠停止的全新汽车表演,为观众带来爆笑的同时科普汽车常识。
  1. General
  2. Unique ID : 247461670951815136198092547013756954405 (0xBA2B625C12A638291F534A616B59A725)
  3. Complete name : The.Grand.Tour.S04E01.2019.Seamen.2160p.AMZN.WEB-DL.DDP.5.1.HDR10Plus.HEVC-TAG.mkv
  4. Format : Matroska
  5. Format version : Version 4
  6. File size : 10.0 GiB
  7. Duration : 1 h 32 min
  8. Overall bit rate : 15.5 Mb/s
  9. Movie name : The Grand Tour (2016) - S04E01 - Seamen
  10. Encoded date : UTC 2022-08-09 08:19:14
  11. Writing application : mkvmerge v68.0.0 ('The Garden') 64-bit
  12. Writing library : libebml v1.4.2 + libmatroska v1.6.4
  13. IMDB : tt5712554
  14. TMDB : tv/67557
  15. TVDB : 314087

  16. Video
  17. ID : 1
  18. Format : HEVC
  19. Format/Info : High Efficiency Video Coding
  20. Format profile : Main 10@L5@Main
  21. HDR format : SMPTE ST 2094 App 4, Version 1, HDR10+ Profile B compatible
  22. Codec ID : V_MPEGH/ISO/HEVC
  23. Duration : 1 h 32 min
  24. Bit rate : 14.9 Mb/s
  25. Width : 3 840 pixels
  26. Height : 2 160 pixels
  27. Display aspect ratio : 16:9
  28. Frame rate mode : Constant
  29. Frame rate : 25.000 FPS
  30. Color space : YUV
  31. Chroma subsampling : 4:2:0
  32. Bit depth : 10 bits
  33. Bits/(Pixel*Frame) : 0.072
  34. Stream size : 9.60 GiB (96%)
  35. Language : English
  36. Default : Yes
  37. Forced : No
  38. Color range : Limited
  39. Color primaries : BT.2020
  40. Transfer characteristics : PQ
  41. Matrix coefficients : BT.2020 non-constant
  42. Mastering display color primaries : Display P3
  43. Mastering display luminance : min: 0.0001 cd/m2, max: 1000 cd/m2
  44. Maximum Content Light Level : 999 cd/m2
  45. Maximum Frame-Average Light Level : 215 cd/m2

  46. Audio
  47. ID : 2
  48. Format : E-AC-3
  49. Format/Info : Enhanced AC-3
  50. Commercial name : Dolby Digital Plus
  51. Codec ID : A_EAC3
  52. Duration : 1 h 32 min
  53. Bit rate mode : Constant
  54. Bit rate : 640 kb/s
  55. Channel(s) : 6 channels
  56. Channel layout : L R C LFE Ls Rs
  57. Sampling rate : 48.0 kHz
  58. Frame rate : 31.250 FPS (1536 SPF)
  59. Compression mode : Lossy
  60. Stream size : 422 MiB (4%)
  61. Title : Dolby Digital Plus / 5.1 / 48 kHz / 640 kbps
  62. Language : English
  63. Service kind : Complete Main
  64. Default : Yes
  65. Forced : No

  66. Text #1
  67. ID : 3
  68. Format : UTF-8
  69. Codec ID : S_TEXT/UTF8
  70. Codec ID/Info : UTF-8 Plain Text
  71. Duration : 18 min 52 s
  72. Bit rate : 0 b/s
  73. Count of elements : 4
  74. Stream size : 105 Bytes (0%)
  75. Title : Forced
  76. Language : English
  77. Default : Yes
  78. Forced : Yes

  79. Text #2
  80. ID : 4
  81. Format : UTF-8
  82. Codec ID : S_TEXT/UTF8
  83. Codec ID/Info : UTF-8 Plain Text
  84. Duration : 1 h 30 min
  85. Bit rate : 85 b/s
  86. Count of elements : 1571
  87. Stream size : 56.6 KiB (0%)
  88. Language : English
  89. Default : No
  90. Forced : No

  91. Text #3
  92. ID : 5
  93. Format : UTF-8
  94. Codec ID : S_TEXT/UTF8
  95. Codec ID/Info : UTF-8 Plain Text
  96. Duration : 1 h 30 min
  97. Bit rate : 90 b/s
  98. Count of elements : 1666
  99. Stream size : 60.5 KiB (0%)
  100. Title : SDH
  101. Language : English
  102. Default : No
  103. Forced : No

  104. Text #4
  105. ID : 6
  106. Format : UTF-8
  107. Codec ID : S_TEXT/UTF8
  108. Codec ID/Info : UTF-8 Plain Text
  109. Duration : 1 h 30 min
  110. Bit rate : 127 b/s
  111. Count of elements : 1488
  112. Stream size : 84.9 KiB (0%)
  113. Title : Egyptian
  114. Language : Arabic
  115. Default : No
  116. Forced : No

  117. Text #5
  118. ID : 7
  119. Format : UTF-8
  120. Codec ID : S_TEXT/UTF8
  121. Codec ID/Info : UTF-8 Plain Text
  122. Duration : 1 h 30 min
  123. Bit rate : 71 b/s
  124. Count of elements : 1488
  125. Stream size : 47.5 KiB (0%)
  126. Title : Simplified
  127. Language : Chinese
  128. Default : No
  129. Forced : No

  130. Text #6
  131. ID : 8
  132. Format : UTF-8
  133. Codec ID : S_TEXT/UTF8
  134. Codec ID/Info : UTF-8 Plain Text
  135. Duration : 1 h 30 min
  136. Bit rate : 67 b/s
  137. Count of elements : 1488
  138. Stream size : 44.5 KiB (0%)
  139. Title : Traditional
  140. Language : Chinese
  141. Default : No
  142. Forced : No

  143. Text #7
  144. ID : 9
  145. Format : UTF-8
  146. Codec ID : S_TEXT/UTF8
  147. Codec ID/Info : UTF-8 Plain Text
  148. Duration : 1 h 31 min
  149. Bit rate : 75 b/s
  150. Count of elements : 1488
  151. Stream size : 50.3 KiB (0%)
  152. Language : Czech
  153. Default : No
  154. Forced : No

  155. Text #8
  156. ID : 10
  157. Format : UTF-8
  158. Codec ID : S_TEXT/UTF8
  159. Codec ID/Info : UTF-8 Plain Text
  160. Duration : 1 h 30 min
  161. Bit rate : 80 b/s
  162. Count of elements : 1486
  163. Stream size : 53.7 KiB (0%)
  164. Language : Danish
  165. Default : No
  166. Forced : No

  167. Text #9
  168. ID : 11
  169. Format : UTF-8
  170. Codec ID : S_TEXT/UTF8
  171. Codec ID/Info : UTF-8 Plain Text
  172. Duration : 1 h 30 min
  173. Bit rate : 75 b/s
  174. Count of elements : 1487
  175. Stream size : 50.0 KiB (0%)
  176. Language : Dutch
  177. Default : No
  178. Forced : No

  179. Text #10
  180. ID : 12
  181. Format : UTF-8
  182. Codec ID : S_TEXT/UTF8
  183. Codec ID/Info : UTF-8 Plain Text
  184. Duration : 1 h 31 min
  185. Bit rate : 72 b/s
  186. Count of elements : 1488
  187. Stream size : 48.2 KiB (0%)
  188. Title : Philippines
  189. Language : fil
  190. Default : No
  191. Forced : No

  192. Text #11
  193. ID : 13
  194. Format : UTF-8
  195. Codec ID : S_TEXT/UTF8
  196. Codec ID/Info : UTF-8 Plain Text
  197. Duration : 1 h 30 min
  198. Bit rate : 79 b/s
  199. Count of elements : 1487
  200. Stream size : 52.9 KiB (0%)
  201. Language : Finnish
  202. Default : No
  203. Forced : No

  204. Text #12
  205. ID : 14
  206. Format : UTF-8
  207. Codec ID : S_TEXT/UTF8
  208. Codec ID/Info : UTF-8 Plain Text
  209. Duration : 1 h 30 min
  210. Bit rate : 80 b/s
  211. Count of elements : 1486
  212. Stream size : 53.4 KiB (0%)
  213. Language : French
  214. Default : No
  215. Forced : No

  216. Text #13
  217. ID : 15
  218. Format : UTF-8
  219. Codec ID : S_TEXT/UTF8
  220. Codec ID/Info : UTF-8 Plain Text
  221. Duration : 1 h 30 min
  222. Bit rate : 80 b/s
  223. Count of elements : 1197
  224. Stream size : 53.2 KiB (0%)
  225. Language : German
  226. Default : No
  227. Forced : No

  228. Text #14
  229. ID : 16
  230. Format : UTF-8
  231. Codec ID : S_TEXT/UTF8
  232. Codec ID/Info : UTF-8 Plain Text
  233. Duration : 1 h 30 min
  234. Bit rate : 119 b/s
  235. Count of elements : 1488
  236. Stream size : 79.1 KiB (0%)
  237. Language : Hebrew
  238. Default : No
  239. Forced : No

  240. Text #15
  241. ID : 17
  242. Format : UTF-8
  243. Codec ID : S_TEXT/UTF8
  244. Codec ID/Info : UTF-8 Plain Text
  245. Duration : 1 h 30 min
  246. Bit rate : 206 b/s
  247. Count of elements : 1488
  248. Stream size : 137 KiB (0%)
  249. Language : Hindi
  250. Default : No
  251. Forced : No

  252. Text #16
  253. ID : 18
  254. Format : UTF-8
  255. Codec ID : S_TEXT/UTF8
  256. Codec ID/Info : UTF-8 Plain Text
  257. Duration : 1 h 31 min
  258. Bit rate : 66 b/s
  259. Count of elements : 1489
  260. Stream size : 44.7 KiB (0%)
  261. Language : Hungarian
  262. Default : No
  263. Forced : No

  264. Text #17
  265. ID : 19
  266. Format : UTF-8
  267. Codec ID : S_TEXT/UTF8
  268. Codec ID/Info : UTF-8 Plain Text
  269. Duration : 1 h 30 min
  270. Bit rate : 73 b/s
  271. Count of elements : 1487
  272. Stream size : 49.0 KiB (0%)
  273. Language : Indonesian
  274. Default : No
  275. Forced : No

  276. Text #18
  277. ID : 20
  278. Format : UTF-8
  279. Codec ID : S_TEXT/UTF8
  280. Codec ID/Info : UTF-8 Plain Text
  281. Duration : 1 h 30 min
  282. Bit rate : 82 b/s
  283. Count of elements : 1487
  284. Stream size : 54.8 KiB (0%)
  285. Language : Italian
  286. Default : No
  287. Forced : No

  288. Text #19
  289. ID : 21
  290. Format : UTF-8
  291. Codec ID : S_TEXT/UTF8
  292. Codec ID/Info : UTF-8 Plain Text
  293. Duration : 1 h 30 min
  294. Bit rate : 81 b/s
  295. Count of elements : 1335
  296. Stream size : 53.8 KiB (0%)
  297. Language : Japanese
  298. Default : No
  299. Forced : No

  300. Text #20
  301. ID : 22
  302. Format : UTF-8
  303. Codec ID : S_TEXT/UTF8
  304. Codec ID/Info : UTF-8 Plain Text
  305. Duration : 1 h 30 min
  306. Bit rate : 92 b/s
  307. Count of elements : 1488
  308. Stream size : 61.1 KiB (0%)
  309. Language : Korean
  310. Default : No
  311. Forced : No

  312. Text #21
  313. ID : 23
  314. Format : UTF-8
  315. Codec ID : S_TEXT/UTF8
  316. Codec ID/Info : UTF-8 Plain Text
  317. Duration : 1 h 31 min
  318. Bit rate : 66 b/s
  319. Count of elements : 1488
  320. Stream size : 44.7 KiB (0%)
  321. Language : Malay
  322. Default : No
  323. Forced : No

  324. Text #22
  325. ID : 24
  326. Format : UTF-8
  327. Codec ID : S_TEXT/UTF8
  328. Codec ID/Info : UTF-8 Plain Text
  329. Duration : 1 h 31 min
  330. Bit rate : 133 b/s
  331. Count of elements : 1490
  332. Stream size : 89.5 KiB (0%)
  333. Language : Greek
  334. Default : No
  335. Forced : No

  336. Text #23
  337. ID : 25
  338. Format : UTF-8
  339. Codec ID : S_TEXT/UTF8
  340. Codec ID/Info : UTF-8 Plain Text
  341. Duration : 1 h 30 min
  342. Bit rate : 79 b/s
  343. Count of elements : 1487
  344. Stream size : 52.7 KiB (0%)
  345. Language : Norwegian Bokmal
  346. Default : No
  347. Forced : No

  348. Text #24
  349. ID : 26
  350. Format : UTF-8
  351. Codec ID : S_TEXT/UTF8
  352. Codec ID/Info : UTF-8 Plain Text
  353. Duration : 1 h 30 min
  354. Bit rate : 72 b/s
  355. Count of elements : 1487
  356. Stream size : 48.2 KiB (0%)
  357. Language : Polish
  358. Default : No
  359. Forced : No

  360. Text #25
  361. ID : 27
  362. Format : UTF-8
  363. Codec ID : S_TEXT/UTF8
  364. Codec ID/Info : UTF-8 Plain Text
  365. Duration : 1 h 30 min
  366. Bit rate : 86 b/s
  367. Count of elements : 1487
  368. Stream size : 57.2 KiB (0%)
  369. Title : Brazilian
  370. Language : Portuguese
  371. Default : No
  372. Forced : No

  373. Text #26
  374. ID : 28
  375. Format : UTF-8
  376. Codec ID : S_TEXT/UTF8
  377. Codec ID/Info : UTF-8 Plain Text
  378. Duration : 1 h 31 min
  379. Bit rate : 75 b/s
  380. Count of elements : 1490
  381. Stream size : 50.3 KiB (0%)
  382. Language : Portuguese
  383. Default : No
  384. Forced : No

  385. Text #27
  386. ID : 29
  387. Format : UTF-8
  388. Codec ID : S_TEXT/UTF8
  389. Codec ID/Info : UTF-8 Plain Text
  390. Duration : 1 h 31 min
  391. Bit rate : 77 b/s
  392. Count of elements : 1490
  393. Stream size : 51.8 KiB (0%)
  394. Language : Romanian
  395. Default : No
  396. Forced : No

  397. Text #28
  398. ID : 30
  399. Format : UTF-8
  400. Codec ID : S_TEXT/UTF8
  401. Codec ID/Info : UTF-8 Plain Text
  402. Duration : 1 h 30 min
  403. Bit rate : 145 b/s
  404. Count of elements : 1487
  405. Stream size : 96.4 KiB (0%)
  406. Language : Russian
  407. Default : No
  408. Forced : No

  409. Text #29
  410. ID : 31
  411. Format : UTF-8
  412. Codec ID : S_TEXT/UTF8
  413. Codec ID/Info : UTF-8 Plain Text
  414. Duration : 1 h 30 min
  415. Bit rate : 84 b/s
  416. Count of elements : 1487
  417. Stream size : 56.3 KiB (0%)
  418. Title : España
  419. Language : Spanish
  420. Default : No
  421. Forced : No

  422. Text #30
  423. ID : 32
  424. Format : UTF-8
  425. Codec ID : S_TEXT/UTF8
  426. Codec ID/Info : UTF-8 Plain Text
  427. Duration : 1 h 30 min
  428. Bit rate : 84 b/s
  429. Count of elements : 1487
  430. Stream size : 56.4 KiB (0%)
  431. Title : Latin American
  432. Language : Spanish
  433. Default : No
  434. Forced : No

  435. Text #31
  436. ID : 33
  437. Format : UTF-8
  438. Codec ID : S_TEXT/UTF8
  439. Codec ID/Info : UTF-8 Plain Text
  440. Duration : 1 h 30 min
  441. Bit rate : 83 b/s
  442. Count of elements : 1487
  443. Stream size : 55.3 KiB (0%)
  444. Language : Swedish
  445. Default : No
  446. Forced : No

  447. Text #32
  448. ID : 34
  449. Format : UTF-8
  450. Codec ID : S_TEXT/UTF8
  451. Codec ID/Info : UTF-8 Plain Text
  452. Duration : 1 h 30 min
  453. Bit rate : 247 b/s
  454. Count of elements : 1488
  455. Stream size : 164 KiB (0%)
  456. Language : Tamil
  457. Default : No
  458. Forced : No

  459. Text #33
  460. ID : 35
  461. Format : UTF-8
  462. Codec ID : S_TEXT/UTF8
  463. Codec ID/Info : UTF-8 Plain Text
  464. Duration : 1 h 30 min
  465. Bit rate : 221 b/s
  466. Count of elements : 1488
  467. Stream size : 147 KiB (0%)
  468. Language : Telugu
  469. Default : No
  470. Forced : No

  471. Text #34
  472. ID : 36
  473. Format : UTF-8
  474. Codec ID : S_TEXT/UTF8
  475. Codec ID/Info : UTF-8 Plain Text
  476. Duration : 1 h 30 min
  477. Bit rate : 182 b/s
  478. Count of elements : 1488
  479. Stream size : 121 KiB (0%)
  480. Language : Thai
  481. Default : No
  482. Forced : No

  483. Text #35
  484. ID : 37
  485. Format : UTF-8
  486. Codec ID : S_TEXT/UTF8
  487. Codec ID/Info : UTF-8 Plain Text
  488. Duration : 1 h 30 min
  489. Bit rate : 76 b/s
  490. Count of elements : 1487
  491. Stream size : 51.1 KiB (0%)
  492. Language : Turkish
  493. Default : No
  494. Forced : No

  495. Menu
  496. 00:00:00.000 : en:Studio Logo
  497. 00:00:05.000 : en:Welcome to Cambodia
  498. 00:00:38.000 : en:Intro
  499. 00:00:48.640 : en:Seamen
  500. 01:30:54.000 : en:Credits
复制代码
[2019][英国][真人秀]大天下之旅 第四时/巨大的旅程/歌朗途 第4季 [全4集][中字].The.Grand.Tour.S04.2019.2160p.AMZN.WEB-DL.DDP.5.1.HDR10Plus.HEVC-TAG 37.23GB-2.png
[2019][英国][真人秀]大天下之旅 第四时/巨大的旅程/歌朗途 第4季 [全4集][中字].The.Grand.Tour.S04.2019.2160p.AMZN.WEB-DL.DDP.5.1.HDR10Plus.HEVC-TAG 37.23GB-3.png
[2019][英国][真人秀]大天下之旅 第四时/巨大的旅程/歌朗途 第4季 [全4集][中字].The.Grand.Tour.S04.2019.2160p.AMZN.WEB-DL.DDP.5.1.HDR10Plus.HEVC-TAG 37.23GB-4.png








回复

使用道具 举报

懒得打字嘛,点击右侧快捷回复 【右侧内容,后台自定义】
您需要登录后才可以回帖 登录 | 立即加入

本版积分规则

Archiver| |网站地图

Copyright © 2024 Comsenz Inc. Powered by 蓝光电影网

本站内容由用户自主分享和转载自互联网,转载目的在于传递更多信息,并不代表本网赞同其观点和对其真实性负责。

如有侵权、违反国家法律政策行为,请联系我们,我们会第一时间及时清除和处理!

举报反馈邮箱:4k1080.com@gmail.com

快速回复 返回顶部 返回列表