找回密码

查看: 1190|回复: 7

[2160p-WEB] 一代枭雄之三支旗 [国粤双语][无字幕].Man.of.the.Times.1993.WEB-DL.2160P.H265.DD.2.0-TAG 7.84GB

[复制链接]
蓝光币
1925
发表于 2024-2-26 16:03:34 | 显示全部楼层 |阅读模式
一代枭雄之三支旗 [国粤双语][无字幕].Man.of.the.Times.1993.WEB-DL.2160P.H265.DD.2.0-TAG 7.84GB-1.jpg

◎译  名 一代枭雄之三支旗 / 一代枭雄之惟我独尊 / Man of the Times
◎片  名 一代梟雄之三支旗
◎年  代 1993
◎产  地 中国香港
◎类  别 剧情 / 笑剧 / 犯罪
◎语  言 汉语普通话 / 粤语
◎上映日期 1993-08-28(中国香港)
◎IMDb评星  ★★★★★✦☆☆☆☆
◎IMDb评分  5.5/10 from 38 users
◎IMDb链接  https://www.imdb.com/title/tt0108621/
◎豆瓣评星 ★★★✦☆
◎豆瓣评分 6.5/10 from 2,993 users
◎豆瓣链接 https://movie.douban.com/subject/1302582/
◎片  长 94分钟
◎导  演 黄泰来 / Taylor Wong
◎演  员 吕良伟 / Ray Lui
      郑则仕 / Kent Cheng
      叶玉卿 / Veronica Yip
      吴毅将 / Ben Ng
      林保怡 / Bowie Lam
      秦豪 / Ho Chin
      秦虹 / Hung Chun
      叶德娴 / Deanie Ip
      许蓓 / Pui Hui
      李华干 / Wah-Kon Lee
      张兆 / Cheung Siu
      吴孟达 / Man Tat Ng
      郑伟伦 / Wai Lun Cheng
      王霄 / Kelvin Wong
      罗伯特·扎雅克 / Robert Zajac | 饰 差人
◎编  剧 陈文强 / Man Keung Chan
      李世雄 / Sai Hung Lee
      萧若元 / Stephen Siu
◎摄  影 温文杰 / Derek Wan
◎其  它 黄华和 / Wah Wo Wong
      何添 / Tim Ho

◎简  介 

  学警陈志超虽成就名列前茅,但因获咎探长刘福而被调守梅窝,却因一次缉获当地黑社会头子而获派担任便衣,更与江湖大姐义结金兰。福没法摆平英军强奸村女一案,听侄儿刘和奸计欲谗谄志超,幸志超逢凶化吉,同时亦使刘福威名大增,尔后官运利市,引来同寅林光及雷洛吃醋。志超素性风骚,除有妻何玉珠及妾白素芬外,更有女友姚卿,引发素芬不满,在自杀及偷汉后,终弄致分手。志超因晓得阿谀刘福,遂成为刘福退休后的继任人,誓词吊民伐罪。时刘和把小女乐郭秋菊卖身给夏爵士,以后更逼死她,志超便抓来刘和替秋菊报仇,更不惜与刘和的老板雷洛再结梁子。最初刘福在临终前来讨情,志超才饶刘和一命。志超在五十年月屡次社会暴乱中均有突出的表示,故最初获升为新部分“三支旗”(香港、九龙、新界俗称三支旗)的总舵主,具有无尚警力,成为警界神话。
  1. General
  2. Unique ID : 198187692536020405202741767692742230730 (0x95198FA89A207838742D838DF3CB02CA)
  3. Complete name : Man of the Times 1993 WEB-DL 2160P H265 DD 2.0-TAG.mkv
  4. Format : Matroska
  5. Format version : Version 4
  6. File size : 7.84 GiB
  7. Duration : 1 h 39 min
  8. Overall bit rate : 11.2 Mb/s
  9. Encoded date : UTC 2020-04-10 08:16:33
  10. Writing application : mkvmerge v19.0.0 (‘Brave Captain‘) 64-bit
  11. Writing library : libebml v1.3.5 + libmatroska v1.4.8

  12. Video
  13. ID : 1
  14. Format : HEVC
  15. Format/Info : High Efficiency Video Coding
  16. Format profile : Main@L5@Main
  17. Codec ID : V_MPEGH/ISO/HEVC
  18. Duration : 1 h 39 min
  19. Bit rate : 10.8 Mb/s
  20. Width : 3 840 pixels
  21. Height : 2 160 pixels
  22. Display aspect ratio : 16:9
  23. Frame rate mode : Constant
  24. Frame rate : 25.000 FPS
  25. Color space : YUV
  26. Chroma subsampling : 4:2:0
  27. Bit depth : 8 bits
  28. Bits/(Pixel*Frame) : 0.052
  29. Stream size : 7.57 GiB (97%)
  30. Default : Yes
  31. Forced : No

  32. Audio #1
  33. ID : 2
  34. Format : AC-3
  35. Format/Info : Audio Coding 3
  36. Commercial name : Dolby Digital
  37. Codec ID : A_AC3
  38. Duration : 1 h 39 min
  39. Bit rate mode : Constant
  40. Bit rate : 192 kb/s
  41. Channel(s) : 2 channels
  42. Channel layout : L R
  43. Sampling rate : 48.0 kHz
  44. Frame rate : 31.250 FPS (1536 SPF)
  45. Bit depth : 16 bits
  46. Compression mode : Lossy
  47. Stream size : 137 MiB (2%)
  48. Title : 国语
  49. Language : Chinese
  50. Service kind : Complete Main
  51. Default : Yes
  52. Forced : No

  53. Audio #2
  54. ID : 3
  55. Format : AC-3
  56. Format/Info : Audio Coding 3
  57. Commercial name : Dolby Digital
  58. Codec ID : A_AC3
  59. Duration : 1 h 39 min
  60. Bit rate mode : Constant
  61. Bit rate : 192 kb/s
  62. Channel(s) : 2 channels
  63. Channel layout : L R
  64. Sampling rate : 48.0 kHz
  65. Frame rate : 31.250 FPS (1536 SPF)
  66. Bit depth : 16 bits
  67. Compression mode : Lossy
  68. Stream size : 137 MiB (2%)
  69. Title : 粤语
  70. Language : Chinese
  71. Service kind : Complete Main
  72. Default : No
  73. Forced : No
复制代码
一代枭雄之三支旗 [国粤双语][无字幕].Man.of.the.Times.1993.WEB-DL.2160P.H265.DD.2.0-TAG 7.84GB-2.png
一代枭雄之三支旗 [国粤双语][无字幕].Man.of.the.Times.1993.WEB-DL.2160P.H265.DD.2.0-TAG 7.84GB-3.png
一代枭雄之三支旗 [国粤双语][无字幕].Man.of.the.Times.1993.WEB-DL.2160P.H265.DD.2.0-TAG 7.84GB-4.png
一代枭雄之三支旗 [国粤双语][无字幕].Man.of.the.Times.1993.WEB-DL.2160P.H265.DD.2.0-TAG 7.84GB-5.png








回复

使用道具 举报

蓝光币
805
发表于 2024-2-26 19:34:28 | 显示全部楼层
楼主发贴辛苦了,谢谢楼主分享!我觉得蓝光电影网是注册对了!
回复

使用道具 举报

蓝光币
799
发表于 2024-2-26 19:54:53 | 显示全部楼层
楼主发贴辛苦了,谢谢楼主分享!我觉得蓝光电影网是注册对了!
回复

使用道具 举报

蓝光币
181
发表于 2024-2-26 20:45:25 | 显示全部楼层
楼主发贴辛苦了,谢谢楼主分享!我觉得蓝光电影网是注册对了!
回复

使用道具 举报

蓝光币
4720
发表于 2024-2-26 21:26:56 | 显示全部楼层

楼主,大恩不言谢了!蓝光电影网是最棒的!
回复

使用道具 举报

蓝光币
577
发表于 2024-2-26 21:38:45 | 显示全部楼层

楼主,大恩不言谢了!蓝光电影网是最棒的!
回复

使用道具 举报

蓝光币
97
发表于 2024-2-27 20:36:27 | 显示全部楼层
谢谢分享!
回复

使用道具 举报

蓝光币
1
发表于 2024-4-24 01:25:12 来自手机 | 显示全部楼层
谢谢楼主分享
回复

使用道具 举报

懒得打字嘛,点击右侧快捷回复 【右侧内容,后台自定义】
您需要登录后才可以回帖 登录 | 立即加入

本版积分规则

Archiver| |网站地图

Copyright © 2024 Comsenz Inc. Powered by 蓝光电影网

本站内容由用户自主分享和转载自互联网,转载目的在于传递更多信息,并不代表本网赞同其观点和对其真实性负责。

如有侵权、违反国家法律政策行为,请联系我们,我们会第一时间及时清除和处理!

举报反馈邮箱:4k1080.com@gmail.com

快速回复 返回顶部 返回列表