找回密码

查看: 315|回复: 1

[喜剧] 青年警察.Midnight.Runners.2017.KOR.1080p.BluRay.REMUX.AVC.TrueHD.5.1-Asmo 17.75GB

[复制链接]
蓝光币
1917
发表于 2024-2-27 15:17:09 | 显示全部楼层 |阅读模式


◎译  名 青年差人 / 菜鸟警校生(台) / Midnight Runners
◎片  名 청년경찰
◎年  代 2017
◎产  地 韩国
◎类  别 笑剧 / 行动 / 犯罪
◎语  言 韩语
◎上映日期 2017-08-09(韩国)
◎IMDb评星  ★★★★★★★✦☆☆
◎IMDb评分  7.3/10 from 9,438 users
◎IMDb链接  https://www.imdb.com/title/tt7056732/
◎豆瓣评星 ★★★★☆
◎豆瓣评分 7.5/10 from 48,058 users
◎豆瓣链接 https://movie.douban.com/subject/26892281/
◎片  长 109分钟
◎导  演 金周焕 / Kim Joo-Hwan
◎演  员 朴叙俊 / Seo-Joon Park | 饰 朴基俊
      姜河那 / Ha-neul Kang | 饰 姜熙烈
      朴河宣 / Ha-seon Park | 饰 珠熙
      成东日 / Dong-il Sung | 饰 梁成日教授
      裴侑蓝 / Bae Yoo-ram | 饰 宰浩
      高俊 / Go Joon | 饰 榮春
      权俞娜 / Kwon Yu na
      李圭成 / Gyoo-seong Lee | 饰 差人学院学员
      黄灿盛 / Chan-sung Hwang | 饰 夜店出现的艺人
      李世熙 / Sehee Lee | 饰 夜店女孩 世熙
      李胜熙 / Seung-hee Lee | 饰 가출여고생 브로커 건영
      金亨硕 / Hyung Suk Kim | 饰 Police academy student
      申载敏 / Jae-min Sin | 饰 경찰대 동기생
      郑义顺 / Eui-soon Jung | 饰 Tteolbokki restaurant boss
      林智亨 / Ji-hyeong Im | 饰 경찰대 동기생
      李承熙 / Seung-hee Lee | 饰 建英
      金英雅 / Kim Young Ah | 饰 不孕女性
      李佑盛 / WooSung Lee
      韩智媛 / Han Jin-won | 饰 被绑架女高中生 智媛
      金敏松 / Kim Min Song
      吴宥珍 / Oh Yoo-jin | 饰 离家出走女高中生恩美
      禹尚基 /  Woo Sang Ki
      金圭白 / Kim Kyu Baek | 饰 荣春一党
      李秀仁 / Lee Soo In | 饰 夜店女孩 秀仁
      车始元 / Cha Shi Won | 饰 差人大学门生
      李恩泉 / Eun-saem Lee | 饰 Kidnapped high school girl Eun-saem
      刘庆秀 / Ryoo Kyung-soo | 饰 Police academy conscripted policeman
      金姜贤 / Gang-Hyun Kim | 饰 江南派出所小组组长金
      郑元中 / Won-jung Jeong | 饰 差人学院院长
      智燦 / Ji Chan | 饰 便当店客户
      李芝恩 / Ji-Eun Lee | 饰 夜店职员
      李俊赫 / Lee Joon-Hyuk | 饰 警大导师
      姜敏泰 / Kang Min-tae | 饰 Yeong-choon's gang
      郑多恩 / Jung Da-eun | 饰 Runaway high school girl Hyo-jin
      吴宥真 / Oh Yu-jin | 饰 Runaway high school girl Eun-mi
      金其范 / Kim Gi-beom | 饰 Police academy training group
      边佑锡 / Byeon Woo-seok | 饰 Club entertainer
      李浩贞 / LEE HO JUNG | 饰 李允貞
      徐正妍 / Seo Jung-yeon | 饰 Gi-joon's mother
      崔宏一 / Hong-il Choi | 饰 姜熙烈 父
      李元尚 / Lee Won-sang | 饰 Police academy student
      金河燕 / Kim Ha-yeon | 饰 Clubber
      南文哲 / Moon-cheol Nam | 饰 婦產科院長
◎编  剧 金周焕 / Kim Joo-Hwan
◎行动特技 张载旭 / Jang Jae-wook
◎简  介 
  《青年差人》报告了两位警校同伴目击了一场绑架事务并卷入其中的故事。本日曝光预告片中,展现了朴徐俊和姜河那饰演的"行动派"基俊和"学霸"熙烈在差人黉舍相知趣交,并一路履利用命的进程。
◎获奖情况 
  第54届韩国电影大钟奖 (2017)
  最好新人导演(提名) 金周焕
  最好新人男演员 朴叙俊
  1. Midnight.Runners.2017.KOR.1080p.BluRay.REMUX.AVC.TrueHD.5.1-Asmo
  2. Stream #0:0(kor): Video: h264 (High), yuv420p(tv, bt709, progressive), 1920x1080 [SAR 1:1 DAR 16:9], 24 fps, 24 tbr, 1k tbn, 48 tbc (default)
  3. Stream #0:1(kor): Audio: truehd, 96000 Hz, 5.1(side), s32 (24 bit) (default)
  4. Stream #0:2(kor): Audio: ac3, 48000 Hz, 5.1(side), fltp, 640 kb/s
  5. Stream #0:3(pol): Subtitle: subrip
  6. Stream #0:4(eng): Subtitle: subrip
复制代码









回复

使用道具 举报

蓝光币
118
发表于 2024-2-29 20:41:32 | 显示全部楼层

感谢楼主的无私分享!要
回复

使用道具 举报

懒得打字嘛,点击右侧快捷回复 【右侧内容,后台自定义】
您需要登录后才可以回帖 登录 | 立即加入

本版积分规则

Archiver| |网站地图

Copyright © 2024 Comsenz Inc. Powered by 蓝光电影网

本站内容由用户自主分享和转载自互联网,转载目的在于传递更多信息,并不代表本网赞同其观点和对其真实性负责。

如有侵权、违反国家法律政策行为,请联系我们,我们会第一时间及时清除和处理!

举报反馈邮箱:4k1080.com@gmail.com

快速回复 返回顶部 返回列表