找回密码

查看: 359|回复: 1

[动作] 阴曹使者.The.Divine.Fury.2019.KOR.1080p.BluRay.REMUX.AVC.DTS-HD.MA.5.1-Asmo 30.17GB

[复制链接]
蓝光币
1917
发表于 2024-3-1 13:41:54 | 显示全部楼层 |阅读模式


◎译  名 阴曹使者 / 驱魔使者(港/台) / 使者 / The Divine Fury
◎片  名 사자
◎年  代 2019
◎产  地 韩国
◎类  别 行动 / 可骇
◎语  言 韩语
◎上映日期 2019-07-31(韩国)
◎IMDb评星  ★★★★★★✦☆☆☆
◎IMDb评分  6.3/10 from 4,126 users
◎IMDb链接  https://www.imdb.com/title/tt10550884/
◎豆瓣评星 ★★★☆☆
◎豆瓣评分 6.4/10 from 21,676 users
◎豆瓣链接 https://movie.douban.com/subject/30181079/
◎片  长 129分钟
◎导  演 金周焕 / Kim Joo-Hwan
◎演  员 朴叙俊 / Seo-Joon Park | 饰 荣厚
      安圣基 / Sung-kee Ahn | 饰 安神父
      禹棹焕 / Woo Do-hwan | 饰 智信
      朴智炫 / Ji-hyun Park | 饰 秀珍
      郑志薰 / Jung Ji-hoon | 饰 浩锡
      李胜熙 / Seung-hee Lee
      沈熙燮 / Hee-seop Sim | 饰 金神父
      崔宇植 / Choi Woo-shik | 饰 崔神父
      朴真珠 / Jin-ju Park | 饰 巴比伦夜店女
      李成俊 / Seung-joon Lee | 饰 朴刑警
      赵恩亨 / Eun-hyung Jo | 饰 洪真
      李雪 / Lee Seol | 饰 雪
      徐正妍 / Seo Jung-yeon | 饰 秀珍母
      赵泰宽 / Jasper Cho | 饰 掮客人
      金诗恩 / Kim Si-eun | 饰 Theresa
      崔宏一 / Hong-il Choi | 饰 教区厅长
      郑义顺 / Eui-soon Jung | 饰 维罗尼卡
      李正贤 / Jung-hyu Lee | 饰 真
      裴贤圣 / Bae Hyun Sung | 饰 Hyun Sung
      刘庆秀 / Ryoo Kyung-soo
      裴始真 / Si Jin Bae | 饰 巴比伦俱乐部男
      韩多美 / Da-mi Han | 饰 秀珍的朋友1
      张世雅 / Se-ah Jang
      金根英 / Geun-Young Kim | 饰 부마자 목소리 4
      洪胜范 / Seung-bum Hong
      李秀仁 / Lee Soo In | 饰 珠惠
      金大涵 / Dae-han Kim | 饰 Shadow
      车始元 / Cha Shi Won | 饰 大桓
      律灿 / Yul Chan | 饰 목소리 배우
      金范洙 / Kim Bum Soo
      金范秀 / Beom-Soo Kim | 饰 범수
      李承熙 / Seung-hee Lee | 饰 사내
      朴实恩 / Park So Eun | 饰 巴比伦夜店女 / 秀珍的朋友2
      李灿俞 / Chanyu Lee | 饰 少年荣厚
      韩慧芝 / Han Hye-Ji | 饰 抽血护士
      吴子勋 / Oh Ja-hun
      朴浚爀 / Park Jun Hyeok | 饰 约瑟夫教堂1
      金·约瑟夫 / Joseph Kim | 饰 巴比伦夜店男 / 龙厚八大站 医院
◎编  剧 金周焕 / Kim Joo-Hwan
◎简  介 
  《阴曹使者》报告死神来到阳世发生的故事,同时是一部带有超自然元素的惊悚行动片。落空父亲的肉搏选手勇厚(朴叙俊 饰)在碰到祭司安神父(安胜基 饰)后,与扰浊天下的邪恶死神展开了决战。
  1. The.Divine.Fury.2019.KOR.1080p.BluRay.REMUX.AVC.DTS-HD.MA.5.1-Asmo
  2. Stream #0:0(kor): Video: h264 (High), yuv420p(progressive), 1920x1080 [SAR 1:1 DAR 16:9], 24 fps, 24 tbr, 1k tbn, 48 tbc (default)
  3. Stream #0:1(kor): Audio: dts (DTS-HD MA), 48000 Hz, 5.1(side), s16p (default)
  4. Stream #0:2(pol): Subtitle: subrip
  5. Stream #0:3(pol): Subtitle: hdmv_pgs_subtitle
  6. Stream #0:4(eng): Subtitle: subrip
  7. Stream #0:5(eng): Subtitle: hdmv_pgs_subtitle
复制代码









回复

使用道具 举报

蓝光币
232
发表于 2024-3-2 20:21:21 | 显示全部楼层

楼主太厉害了!楼主,电影应该很好看我觉得蓝光电影网真是个好地方!
回复

使用道具 举报

懒得打字嘛,点击右侧快捷回复 【右侧内容,后台自定义】
您需要登录后才可以回帖 登录 | 立即加入

本版积分规则

Archiver| |网站地图

Copyright © 2024 Comsenz Inc. Powered by 蓝光电影网

本站内容由用户自主分享和转载自互联网,转载目的在于传递更多信息,并不代表本网赞同其观点和对其真实性负责。

如有侵权、违反国家法律政策行为,请联系我们,我们会第一时间及时清除和处理!

举报反馈邮箱:4k1080.com@gmail.com

快速回复 返回顶部 返回列表