找回密码

查看: 583|回复: 1

[2007][中国][剧情]地下交通站 [全28集 ][第15集源站分辨率为896*672][国语中字].Di.Xia.Jiao.Tong.Zhan.S01.2007.1080p.WEB-DL.H265.AAC-TAG 32.61GB

[复制链接]
蓝光币
1917
发表于 2024-3-5 15:24:42 | 显示全部楼层 |阅读模式
[2007][中国][剧情]地下交通站 [全28集 ][第15集源站分辨率为896*672][国语中字].Di.Xia.Jiao.Tong.Zhan.S01.2007.1080p.WEB-DL.H265.AAC-TAG 32.61GB-1.jpg

◎译  名 地下交通站
◎年  代 2007
◎产  地 中国大陆
◎类  别 剧情 / 笑剧
◎语  言 汉语普通话
◎上映日期 2007-05-06(中国大陆)
◎IMDb链接 暂无
◎豆瓣评分 9.4/10 (34282人评价)
◎豆瓣链接 https://movie.douban.com/subject/2133474/
◎集  数 28
◎片  长 48分钟
◎导  演 英达 Da Ying
       英壮 Zhuang Ying
◎编  剧 英壮 Zhuang Ying
       白志龙 Zhilong Bai
       成钢 Gang Cheng
◎演  员 吴樾 Yue Wu
       鲍弘愿 Dazhi Bao
       刘金山 Jinshan Liu
       英壮 Zhuang Ying
       赵卫东 Weidong Zhao
       贾康熙 Kangxi Jia
       熊伟 Wei Xiong
       高亮 Liang Gao
       颜冠英 Guanying Yan
       赵铁人 Tieren Zhao
       陈松 Song Chen
       王子瑜 Ziyu Wang
       金昭 Zhao Jin
       陶虹 Hong Tao
       郭德纲 Degang Guo
       魏翔 Xiang Wei
       于谦 Qian Yu
       王宁 Ning Wang
       大山 Mark Rowswell
       丁霄汉 Xiaohan Ding

◎简  介
    故事发生在1943年敌后抗日按照地冀中小镇安邱城。此时我军势力不竭成长强大,周边数座县城都被束缚,安邱城中的日伪无不民气惶惑,各思退路。经营一间驴肉馆“鼎香楼”的大伙计蔡水根(饰)颇得日伪欣赏,而他现实上是将仇敌玩弄于股掌之上的地下共产党员。在蔡水根的率领下,几位共产党员展开了勇敢无畏的地下抗日活动。
  由英氏公司推出的28集系列情形笑剧《地下交通站》,经太长达两年时候的经心策划,以其怪异的形式,全新的视角成为国内首部反应抗战题材的情形笑剧。本剧秉持英氏笑剧的一向气概,使观众在捧腹大笑的同时,遭到反动悲观主义和反动豪杰主义的陶冶。

  1. General
  2. Complete name : 地下交通站.Di.Xia.Jiao.Tong.Zhan.S01E01.2007.1080p.WEB-DL.H265.AAC-TAG.mp4
  3. Format : MPEG-4
  4. Format profile : Base Media
  5. Codec ID : isom (isom/iso2/mp41)
  6. File size : 1.36 GiB
  7. Duration : 48 min 3 s
  8. Overall bit rate mode : Variable
  9. Overall bit rate : 4 055 kb/s
  10. Writing application : Lavf58.32.104

  11. Video
  12. ID : 1
  13. Format : HEVC
  14. Format/Info : High Efficiency Video Coding
  15. Format profile : Main@L4@Main
  16. Codec ID : hev1
  17. Codec ID/Info : High Efficiency Video Coding
  18. Duration : 48 min 3 s
  19. Bit rate : 3 859 kb/s
  20. Width : 1 400 pixels
  21. Height : 1 080 pixels
  22. Display aspect ratio : 1.296
  23. Frame rate mode : Constant
  24. Frame rate : 24.000 FPS
  25. Color space : YUV
  26. Chroma subsampling : 4:2:0
  27. Bit depth : 8 bits
  28. Bits/(Pixel*Frame) : 0.106
  29. Stream size : 1.30 GiB (95%)
  30. Codec configuration box : hvcC

  31. Audio
  32. ID : 2
  33. Format : AAC LC
  34. Format/Info : Advanced Audio Codec Low Complexity
  35. Codec ID : mp4a-40-2
  36. Duration : 48 min 3 s
  37. Bit rate mode : Variable
  38. Bit rate : 192 kb/s
  39. Channel(s) : 2 channels
  40. Channel layout : L R
  41. Sampling rate : 44.1 kHz
  42. Frame rate : 43.066 FPS (1024 SPF)
  43. Compression mode : Lossy
  44. Stream size : 65.3 MiB (5%)
  45. Default : Yes
  46. Alternate group : 1
复制代码
[2007][中国][剧情]地下交通站 [全28集 ][第15集源站分辨率为896*672][国语中字].Di.Xia.Jiao.Tong.Zhan.S01.2007.1080p.WEB-DL.H265.AAC-TAG 32.61GB-2.png









回复

使用道具 举报

蓝光币
1996
发表于 2024-3-15 17:08:21 | 显示全部楼层
没种子
回复

使用道具 举报

懒得打字嘛,点击右侧快捷回复 【右侧内容,后台自定义】
您需要登录后才可以回帖 登录 | 立即加入

本版积分规则

Archiver| |网站地图

Copyright © 2024 Comsenz Inc. Powered by 蓝光电影网

本站内容由用户自主分享和转载自互联网,转载目的在于传递更多信息,并不代表本网赞同其观点和对其真实性负责。

如有侵权、违反国家法律政策行为,请联系我们,我们会第一时间及时清除和处理!

举报反馈邮箱:4k1080.com@gmail.com

快速回复 返回顶部 返回列表