找回密码

查看: 780|回复: 6

[2160p] 疯狂的麦克斯4:狂暴之路.Mad.Max.Fury.Road.2015.Eng.Fre.Ger.Ita.Por.Spa.Jpn.2160p.BluRay.Remux.HDR.HEVC.Atmos-SGF 55.96GB

[复制链接]
蓝光币
1925
发表于 2024-3-15 15:11:47 | 显示全部楼层 |阅读模式


◎译  名 疯狂的麦克斯4:狞恶之路 / 末日先锋:战甲飞车(港) / 疯狂麦斯:愤慨道(台) / 冲锋飞车队4 / 迷雾追魂手4 / 冲锋追魂手4 / 疯狂麦克斯4 / 疯狂迈斯:怒途 / Mad Max 4: Fury Road
◎片  名 Mad Max: Fury Road
◎年  代 2015
◎产  地 澳大利亚 / 美国
◎类  别 行动 / 科幻 / 冒险
◎语  言 英语 / 俄语
◎上映日期 2015-05-14(澳大利亚) / 2015-05-15(美国)
◎IMDb评星  ★★★★★★★★☆☆
◎IMDb评分  8.1/10 from 1,078,038 users
◎IMDb链接  https://www.imdb.com/title/tt1392190/
◎豆瓣评星 ★★★★✦
◎豆瓣评分 8.7/10 from 549,687 users
◎豆瓣链接 https://movie.douban.com/subject/3592854/
◎片  长 120分钟
◎导  演 乔治·米勒 / George Miller
◎演  员 汤姆·哈迪 / Tom Hardy
      查理兹·塞隆 / Charlize Theron
      尼古拉斯·霍尔特 / Nicholas Hoult
      休·基斯-拜恩 / Hugh Keays-Byrne
      乔什·赫尔曼 / Josh Helman | 饰 Slit
      内森·琼斯 / Nathan Jones
      佐伊·克罗维兹 / Zoë Kravitz
      罗茜·汉丁顿-惠特莉 / Rosie Huntington-Whiteley
      丽莉·吉欧 / Riley Keough
      阿比·丽 / Abbey Lee
      考特尼·伊顿 / Courtney Eaton
      安格斯·桑普森 / Angus Sampson
      理查德·卡特 / Richard Carter
      梅根·盖尔 / Megan Gale
      肖恩·哈普 / Sean Hape
      吉纳维芙·艾特肯 / Genevieve Aitken | 饰 特技演员
      理查德·诺顿 / Richard Norton
      理查德·诺顿 / Richard Norton
      黛布拉·迪兹 / Debra Ades
      约翰·霍华德 / John Howard
      约翰·霍华德 / John Howard
◎编  剧 乔治·米勒 / George Miller
      布伦丹·麦卡锡 / Brendan McCarthy
      尼克·拉图里 / Nick Lathouris
◎制  片  人 乔治·米勒 / George Miller
◎音  乐 琼基·XL / Junkie XL
◎摄  影 约翰·希尔 / John Seale
◎剪  辑 玛格丽特·西克索 / Margaret Sixel
◎选  角 罗纳·克雷斯 / Ronna Kress
◎美  术 科林·吉布森 / Colin Gibson
◎服  装 珍妮·碧万 / Jenny Beavan
◎副  导  演 盖伊·诺里斯 / Guy Norris
◎视觉殊效 安德鲁·杰克逊 / Andrew Jackson
      丹·奥利弗 / Dan Oliver
      安迪·威廉斯 / Andy Williams
      詹森·拉尼尔·布朗 / Jason Lanier Brown
      丹·贝瑟尔 / Dan Bethell
◎行动特技 洛基·麦克唐纳 / Rocky McDonald
      英格丽德·克莱尼格 / ingrid kleinig
      盖伊·诺里斯 / Guy Norris
      凯尔西·伊根 / Kelsey Egan
      克雷格·马克雷 / Craig Macrae
◎其  它 丹·约翰斯顿 / Dan Johnston
      大卫·怀特 / David White
      艾尔卡·沃德加 / Elka Wardega
      达米安·马丁 / Damian Martin
◎简  介 
  未来天下,水资本欠缺激发了连缀的战争。人们相互厮杀,争取有限的资本,地球酿成了血腥实足的杀戮死疆场。面庞可骇的不死乔在沙漠山谷建立了难以撼动的强大武装王国,他手下的战郎驾驶装备尖端兵器的战车四下劫掠,杀伐无度,甚至将自己的孩子打形成战争机械。在比来一次行动中,不死乔的得力战将弗瑞奥萨(查理兹·塞隆 Charlize Theron 饰)带着生育者们潜逃,这令不死乔大发雷霆,立誓要追复生育者。履历了剧烈的追逐战和摧毁力极强的沙尘暴,弗瑞奥萨和作为血主的麦克斯(汤姆·哈迪 Tom Hardy 饰)被迫上路,而死后不但有不死乔的追兵,还有汽油镇、子弹农场的重兵追逐。
  末世战争,周全爆发……
◎获奖情况 
  第88届奥斯卡金像奖 (2016)
  最好影片(提名) 道格·米切尔,乔治·米勒
  最好导演(提名) 乔治·米勒
  最好摄影(提名) 约翰·希尔
  最好剪辑 玛格丽特·西克索
  最好视觉结果(提名) 汤姆·伍德,安德鲁·杰克逊,丹·奥利弗,安迪·威廉斯
  最好混音 本·奥斯莫,克里斯·詹金斯,格雷格·鲁德洛夫
  最好音效剪辑 大卫·怀特,马克·马基尼
  最好艺术指导 科林·吉布森,丽莎·汤普森
  最好打扮设想 珍妮·碧万
  最好化装与发型设想 莱斯利·范德沃尔特,艾尔卡·沃德加,达米安·马丁
  第73届金球奖 (2016)
  电影类 最好剧情片(提名)
  电影类 最好导演(提名) 乔治·米勒
  第69届英国电影学院奖 (2016)
  电影奖 最好摄影(提名) 约翰·希尔
  电影奖 最好剪辑 玛格丽特·西克索
  电影奖 最好化装/发型 莱斯利·范德沃尔特,达米安·马丁
  电影奖 最好打扮设想 珍妮·碧万
  电影奖 最好艺术指导 科林·吉布森,丽莎·汤普森
  电影奖 最好特别视觉结果(提名) 汤姆·伍德,安德鲁·杰克逊,丹·奥利弗,安迪·威廉斯
  电影奖 最好音效(提名) 本·奥斯莫,斯科特·赫克,格雷格·鲁德洛夫,克里斯·詹金斯,大卫·怀特,马克·马基尼
  第39届日本电影学院奖 (2016)
  最好外语片(提名)
  第68届美国导演工会奖 (2016)
  最好电影导演(提名) 乔治·米勒
  第22届美国演员工会奖 (2016)
  电影最好特技群戏
  第27届美国制片野生会奖 (2016)
  最好电影制片人奖(提名)
  第30届美国摄影协会奖 (2016)
  电影长片最好摄影(提名) 约翰·希尔
  第66届美国剪辑工会奖 (2016)
  剧情片最好剪辑
  第18届美国打扮设想工会奖 (2016)
  科幻/奇异题材电影最好打扮设想
  第14届美国视觉结果协会奖 (2016)
  最好殊效电影视觉结果(提名)
  最好真人电影模拟动画结果
  最好电影视觉结果分解(提名)
  第87届美国国家批评协会奖 (2015)
  最好影片
  第21届美国批评家挑选电影奖 (2016)
  最好影片(提名)
  最好导演 乔治·米勒
  最好女配角(提名) 查理兹·塞隆
  最好行动片
  行动片最好男配角 汤姆·哈迪
  行动片最好女配角 查理兹·塞隆
  最好科幻/可骇片(提名)
  最好摄影(提名) 约翰·希尔
  最好剪辑
  最好美术指导
  最好打扮设想
  最好发型化装
  最好视觉结果
  第16届美国电影学会奖 (2015)
  年度佳片
  第20届金卫星奖 (2016)
  电影部分 最好摄影
  第19届好莱坞电影奖 (2015)
  年度化装 莱斯利·范德沃尔特
  年度艺术指导 科林·吉布森
  第14届华盛顿影评人协会奖 (2015)
  最好导演 乔治·米勒
  最好剪辑
  最好艺术指导
  第36届波士顿影评人协会奖 (2015)
  最好剪辑
  第41届洛杉矶影评人协会奖 (2015)
  最好导演 乔治·米勒
  最好摄影
  最好艺术指导
  第28届芝加哥影评人协会奖 (2015)
  最好影片
  最好导演 乔治·米勒
  最好摄影 约翰·希尔
  最好剪辑
  最好艺术指导
  第19届美国在线影评人协会奖 (2015)
  最好影片
  最好导演 乔治·米勒
  最好女配角(提名) 查理兹·塞隆
  最好剪辑 玛格丽特·西克索
  最好摄影 约翰·希尔
  第17届美国青少年挑选奖 (2015)
  最好科幻/奇异电影(提名)
  最抢戏电影演员(提名) 尼古拉斯·霍尔特
◎幕后揭秘
  为了确保该系列影片的原汁原味,本片将回到前作的拍摄现场,再现澳洲大陆的广漠蛮荒,重新归纳典范的传奇。“不异的人物,不异的天下,可是时候跃进了30年。”影片将请来《魔戒》的建造班底,以更先辈的科技手法重新包装,力图再续昔时的“蛮横、原始、实在”的暴力行动气概,并将继续布满“大冲击、大爆炸和大碰撞”。
  1. General
  2. Unique ID: 230165443841603476640119888271845168667 (0xAD284086125D0E1BD16C10CB0E91161B)
  3. Complete name: Mad.Max.Fury.Road.2015.Eng.Fre.Ger.Ita.Por.Spa.Jpn.2160p.BluRay.Remux.HDR.HEVC.Atmos-SGF.mkv
  4. Format: Matroska
  5. Format version: Version 4
  6. File size: 56.0 GiB
  7. Duration: 2 h 0 min
  8. Overall bit rate mode: Variable
  9. Overall bit rate: 66.6 Mb/s
  10. Frame rate: 23.976 FPS
  11. Encoded date: 2024-03-09 18:44:28 UTC
  12. Writing application: mkvmerge v82.0 ('I'm The President') 64-bit
  13. Writing library: libebml v1.4.5 + libmatroska v1.7.1
  14. Video
  15. ID: 1
  16. Format: HEVC
  17. Format/Info: High Efficiency Video Coding
  18. Format profile: Main 10@L5.1@High
  19. HDR format: SMPTE ST 2086, HDR10 compatible
  20. Codec ID: V_MPEGH/ISO/HEVC
  21. Duration: 2 h 0 min
  22. Bit rate: 44.1 Mb/s
  23. Width: 3 840 pixels
  24. Height: 2 160 pixels
  25. Display aspect ratio: 16:9
  26. Frame rate mode: Constant
  27. Frame rate: 23.976 (24000/1001) FPS
  28. Color space: YUV
  29. Chroma subsampling: 4:2:0 (Type 2)
  30. Bit depth: 10 bits
  31. Bits/(Pixel*Frame): 0.222
  32. Stream size: 37.1 GiB (66%)
  33. Default: Yes
  34. Forced: No
  35. Color range: Limited
  36. Color primaries: BT.2020
  37. Transfer characteristics: PQ
  38. Matrix coefficients: BT.2020 non-constant
  39. Mastering display color primaries: Display P3
  40. Mastering display luminance: min: 0.0050 cd/m2, max: 4000 cd/m2
  41. Maximum Content Light Level: 9918 cd/m2
  42. Maximum Frame-Average Light Level: 3241 cd/m2
  43. Audio 1
  44. ID: 2
  45. Format: MLP FBA 16-ch
  46. Format/Info: Meridian Lossless Packing FBA with 16-channel presentation
  47. Commercial name: Dolby TrueHD with Dolby Atmos
  48. Codec ID: A_TRUEHD
  49. Duration: 2 h 0 min
  50. Bit rate mode: Variable
  51. Bit rate: 5 693 kb/s
  52. Maximum bit rate: 8 412 kb/s
  53. Channel(s): 8 channels
  54. Channel layout: L R C LFE Ls Rs Lb Rb
  55. Sampling rate: 48.0 kHz
  56. Frame rate: 1 200.000 FPS (40 SPF)
  57. Compression mode: Lossless
  58. Stream size: 4.79 GiB (9%)
  59. Title: English [Dolby TrueHD Atmos 7.1]
  60. Language: English
  61. Default: Yes
  62. Forced: No
  63. Number of dynamic objects: 11
  64. Bed channel count: 1 channel
  65. Bed channel configuration: LFE
  66. Audio 2
  67. ID: 3
  68. Format: AC-3
  69. Format/Info: Audio Coding 3
  70. Commercial name: Dolby Digital
  71. Format settings: Dolby Surround EX
  72. Codec ID: A_AC3
  73. Duration: 2 h 0 min
  74. Bit rate mode: Constant
  75. Bit rate: 384 kb/s
  76. Channel(s): 6 channels
  77. Channel layout: L R C LFE Ls Rs
  78. Sampling rate: 48.0 kHz
  79. Frame rate: 31.250 FPS (1536 SPF)
  80. Compression mode: Lossy
  81. Stream size: 331 MiB (0%)
  82. Title: English [Dolby Digital EX 5.1]
  83. Language: English
  84. Service kind: Complete Main
  85. Default: No
  86. Forced: No
  87. Audio 3
  88. ID: 4
  89. Format: AC-3
  90. Format/Info: Audio Coding 3
  91. Commercial name: Dolby Digital
  92. Codec ID: A_AC3
  93. Duration: 2 h 0 min
  94. Bit rate mode: Constant
  95. Bit rate: 448 kb/s
  96. Channel(s): 6 channels
  97. Channel layout: L R C LFE Ls Rs
  98. Sampling rate: 48.0 kHz
  99. Frame rate: 31.250 FPS (1536 SPF)
  100. Compression mode: Lossy
  101. Stream size: 386 MiB (1%)
  102. Title: English (United States) [Audio Description]
  103. Language: English (US)
  104. Service kind: Complete Main
  105. Default: No
  106. Forced: No
  107. Audio 4
  108. ID: 5
  109. Format: AC-3
  110. Format/Info: Audio Coding 3
  111. Commercial name: Dolby Digital
  112. Codec ID: A_AC3
  113. Duration: 2 h 0 min
  114. Bit rate mode: Constant
  115. Bit rate: 448 kb/s
  116. Channel(s): 6 channels
  117. Channel layout: L R C LFE Ls Rs
  118. Sampling rate: 48.0 kHz
  119. Frame rate: 31.250 FPS (1536 SPF)
  120. Compression mode: Lossy
  121. Stream size: 386 MiB (1%)
  122. Title: English (United Kingdom) [Audio Description]
  123. Language: English (GB)
  124. Service kind: Complete Main
  125. Default: No
  126. Forced: No
  127. Audio 5
  128. ID: 6
  129. Format: MLP FBA 16-ch
  130. Format/Info: Meridian Lossless Packing FBA with 16-channel presentation
  131. Commercial name: Dolby TrueHD with Dolby Atmos
  132. Codec ID: A_TRUEHD
  133. Duration: 2 h 0 min
  134. Bit rate mode: Variable
  135. Bit rate: 5 600 kb/s
  136. Maximum bit rate: 8 286 kb/s
  137. Channel(s): 8 channels
  138. Channel layout: L R C LFE Ls Rs Lb Rb
  139. Sampling rate: 48.0 kHz
  140. Frame rate: 1 200.000 FPS (40 SPF)
  141. Compression mode: Lossless
  142. Stream size: 4.71 GiB (8%)
  143. Title: French (France) [Dolby TrueHD Atmos 7.1]
  144. Language: French (FR)
  145. Default: No
  146. Forced: No
  147. Number of dynamic objects: 11
  148. Bed channel count: 1 channel
  149. Bed channel configuration: LFE
  150. Audio 6
  151. ID: 7
  152. Format: AC-3
  153. Format/Info: Audio Coding 3
  154. Commercial name: Dolby Digital
  155. Format settings: Dolby Surround EX
  156. Codec ID: A_AC3
  157. Duration: 2 h 0 min
  158. Bit rate mode: Constant
  159. Bit rate: 640 kb/s
  160. Channel(s): 6 channels
  161. Channel layout: L R C LFE Ls Rs
  162. Sampling rate: 48.0 kHz
  163. Frame rate: 31.250 FPS (1536 SPF)
  164. Compression mode: Lossy
  165. Stream size: 551 MiB (1%)
  166. Title: French (France) [Dolby Digital EX 5.1]
  167. Language: French (FR)
  168. Service kind: Complete Main
  169. Default: No
  170. Forced: No
  171. Audio 7
  172. ID: 8
  173. Format: AC-3
  174. Format/Info: Audio Coding 3
  175. Commercial name: Dolby Digital
  176. Codec ID: A_AC3
  177. Duration: 2 h 0 min
  178. Bit rate mode: Constant
  179. Bit rate: 448 kb/s
  180. Channel(s): 6 channels
  181. Channel layout: L R C LFE Ls Rs
  182. Sampling rate: 48.0 kHz
  183. Frame rate: 31.250 FPS (1536 SPF)
  184. Compression mode: Lossy
  185. Stream size: 386 MiB (1%)
  186. Title: French (Canada) [Dolby Digital 5.1]
  187. Language: French (CA)
  188. Service kind: Complete Main
  189. Default: No
  190. Forced: No
  191. Audio 8
  192. ID: 9
  193. Format: MLP FBA 16-ch
  194. Format/Info: Meridian Lossless Packing FBA with 16-channel presentation
  195. Commercial name: Dolby TrueHD with Dolby Atmos
  196. Codec ID: A_TRUEHD
  197. Duration: 2 h 0 min
  198. Bit rate mode: Variable
  199. Bit rate: 5 592 kb/s
  200. Maximum bit rate: 8 412 kb/s
  201. Channel(s): 8 channels
  202. Channel layout: L R C LFE Ls Rs Lb Rb
  203. Sampling rate: 48.0 kHz
  204. Frame rate: 1 200.000 FPS (40 SPF)
  205. Compression mode: Lossless
  206. Stream size: 4.70 GiB (8%)
  207. Title: German [Dolby TrueHD Atmos 7.1]
  208. Language: German
  209. Default: No
  210. Forced: No
  211. Number of dynamic objects: 11
  212. Bed channel count: 1 channel
  213. Bed channel configuration: LFE
  214. Audio 9
  215. ID: 10
  216. Format: AC-3
  217. Format/Info: Audio Coding 3
  218. Commercial name: Dolby Digital
  219. Format settings: Dolby Surround EX
  220. Codec ID: A_AC3
  221. Duration: 2 h 0 min
  222. Bit rate mode: Constant
  223. Bit rate: 640 kb/s
  224. Channel(s): 6 channels
  225. Channel layout: L R C LFE Ls Rs
  226. Sampling rate: 48.0 kHz
  227. Frame rate: 31.250 FPS (1536 SPF)
  228. Compression mode: Lossy
  229. Stream size: 551 MiB (1%)
  230. Title: German [Dolby Digital EX 5.1]
  231. Language: German
  232. Service kind: Complete Main
  233. Default: No
  234. Forced: No
  235. Audio 10
  236. ID: 11
  237. Format: AC-3
  238. Format/Info: Audio Coding 3
  239. Commercial name: Dolby Digital
  240. Codec ID: A_AC3
  241. Duration: 2 h 0 min
  242. Bit rate mode: Constant
  243. Bit rate: 448 kb/s
  244. Channel(s): 6 channels
  245. Channel layout: L R C LFE Ls Rs
  246. Sampling rate: 48.0 kHz
  247. Frame rate: 31.250 FPS (1536 SPF)
  248. Compression mode: Lossy
  249. Stream size: 386 MiB (1%)
  250. Title: Italian [Dolby Digital 5.1]
  251. Language: Italian
  252. Service kind: Complete Main
  253. Default: No
  254. Forced: No
  255. Audio 11
  256. ID: 12
  257. Format: AC-3
  258. Format/Info: Audio Coding 3
  259. Commercial name: Dolby Digital
  260. Codec ID: A_AC3
  261. Duration: 2 h 0 min
  262. Bit rate mode: Constant
  263. Bit rate: 448 kb/s
  264. Channel(s): 6 channels
  265. Channel layout: L R C LFE Ls Rs
  266. Sampling rate: 48.0 kHz
  267. Frame rate: 31.250 FPS (1536 SPF)
  268. Compression mode: Lossy
  269. Stream size: 386 MiB (1%)
  270. Title: Portuguese (Brazil) [Dolby Digital 5.1]
  271. Language: Portuguese (BR)
  272. Service kind: Complete Main
  273. Default: No
  274. Forced: No
  275. Audio 12
  276. ID: 13
  277. Format: AC-3
  278. Format/Info: Audio Coding 3
  279. Commercial name: Dolby Digital
  280. Codec ID: A_AC3
  281. Duration: 2 h 0 min
  282. Bit rate mode: Constant
  283. Bit rate: 448 kb/s
  284. Channel(s): 6 channels
  285. Channel layout: L R C LFE Ls Rs
  286. Sampling rate: 48.0 kHz
  287. Frame rate: 31.250 FPS (1536 SPF)
  288. Compression mode: Lossy
  289. Stream size: 386 MiB (1%)
  290. Title: Spanish (Spain) [Dolby Digital 5.1]
  291. Language: Spanish (ES)
  292. Service kind: Complete Main
  293. Default: No
  294. Forced: No
  295. Audio 13
  296. ID: 14
  297. Format: AC-3
  298. Format/Info: Audio Coding 3
  299. Commercial name: Dolby Digital
  300. Codec ID: A_AC3
  301. Duration: 2 h 0 min
  302. Bit rate mode: Constant
  303. Bit rate: 448 kb/s
  304. Channel(s): 6 channels
  305. Channel layout: L R C LFE Ls Rs
  306. Sampling rate: 48.0 kHz
  307. Frame rate: 31.250 FPS (1536 SPF)
  308. Compression mode: Lossy
  309. Stream size: 386 MiB (1%)
  310. Title: Spanish (Latin America) [Dolby Digital 5.1]
  311. Language: Spanish (Latin America)
  312. Service kind: Complete Main
  313. Default: No
  314. Forced: No
  315. Audio 14
  316. ID: 15
  317. Format: AC-3
  318. Format/Info: Audio Coding 3
  319. Commercial name: Dolby Digital
  320. Codec ID: A_AC3
  321. Duration: 2 h 0 min
  322. Bit rate mode: Constant
  323. Bit rate: 448 kb/s
  324. Channel(s): 6 channels
  325. Channel layout: L R C LFE Ls Rs
  326. Sampling rate: 48.0 kHz
  327. Frame rate: 31.250 FPS (1536 SPF)
  328. Compression mode: Lossy
  329. Stream size: 386 MiB (1%)
  330. Title: Japanese [Dolby Digital 5.1]
  331. Language: Japanese
  332. Service kind: Complete Main
  333. Default: No
  334. Forced: No
  335. Text 1
  336. ID: 16
  337. Format: PGS
  338. Muxing mode: zlib
  339. Codec ID: S_HDMV/PGS
  340. Codec ID/Info: Picture based subtitle format used on BDs/HD-DVDs
  341. Duration: 2 h 0 min
  342. Bit rate: 17.6 kb/s
  343. Frame rate: 0.324 FPS
  344. Count of elements: 2334
  345. Stream size: 15.1 MiB (0%)
  346. Title: English [SDH]
  347. Language: English
  348. Default: No
  349. Forced: No
  350. Text 2
  351. ID: 17
  352. Format: PGS
  353. Muxing mode: zlib
  354. Codec ID: S_HDMV/PGS
  355. Codec ID/Info: Picture based subtitle format used on BDs/HD-DVDs
  356. Duration: 2 h 0 min
  357. Bit rate: 11.7 kb/s
  358. Frame rate: 0.216 FPS
  359. Count of elements: 1552
  360. Stream size: 10.0 MiB (0%)
  361. Title: French [Full]
  362. Language: French
  363. Default: No
  364. Forced: No
  365. Text 3
  366. ID: 18
  367. Format: PGS
  368. Muxing mode: zlib
  369. Codec ID: S_HDMV/PGS
  370. Codec ID/Info: Picture based subtitle format used on BDs/HD-DVDs
  371. Duration: 1 h 56 min
  372. Bit rate: 248 b/s
  373. Frame rate: 0.003 FPS
  374. Count of elements: 24
  375. Stream size: 212 KiB (0%)
  376. Title: French [Forced]
  377. Language: French
  378. Default: No
  379. Forced: No
  380. Text 4
  381. ID: 19
  382. Format: PGS
  383. Muxing mode: zlib
  384. Codec ID: S_HDMV/PGS
  385. Codec ID/Info: Picture based subtitle format used on BDs/HD-DVDs
  386. Duration: 1 h 59 min
  387. Bit rate: 19.5 kb/s
  388. Frame rate: 0.326 FPS
  389. Count of elements: 2344
  390. Stream size: 16.7 MiB (0%)
  391. Title: German [SDH]
  392. Language: German
  393. Default: No
  394. Forced: No
  395. Text 5
  396. ID: 20
  397. Format: PGS
  398. Muxing mode: zlib
  399. Codec ID: S_HDMV/PGS
  400. Codec ID/Info: Picture based subtitle format used on BDs/HD-DVDs
  401. Duration: 1 h 41 min
  402. Bit rate: 156 b/s
  403. Frame rate: 0.002 FPS
  404. Count of elements: 10
  405. Stream size: 116 KiB (0%)
  406. Title: German [Forced]
  407. Language: German
  408. Default: No
  409. Forced: No
  410. Text 6
  411. ID: 21
  412. Format: PGS
  413. Muxing mode: zlib
  414. Codec ID: S_HDMV/PGS
  415. Codec ID/Info: Picture based subtitle format used on BDs/HD-DVDs
  416. Duration: 2 h 0 min
  417. Bit rate: 17.9 kb/s
  418. Frame rate: 0.327 FPS
  419. Count of elements: 2352
  420. Stream size: 15.3 MiB (0%)
  421. Title: Italian [SDH]
  422. Language: Italian
  423. Default: No
  424. Forced: No
  425. Text 7
  426. ID: 22
  427. Format: PGS
  428. Muxing mode: zlib
  429. Codec ID: S_HDMV/PGS
  430. Codec ID/Info: Picture based subtitle format used on BDs/HD-DVDs
  431. Duration: 1 h 56 min
  432. Bit rate: 298 b/s
  433. Frame rate: 0.003 FPS
  434. Count of elements: 22
  435. Stream size: 255 KiB (0%)
  436. Title: Italian [Forced]
  437. Language: Italian
  438. Default: No
  439. Forced: No
  440. Text 8
  441. ID: 23
  442. Format: PGS
  443. Muxing mode: zlib
  444. Codec ID: S_HDMV/PGS
  445. Codec ID/Info: Picture based subtitle format used on BDs/HD-DVDs
  446. Duration: 2 h 0 min
  447. Bit rate: 13.7 kb/s
  448. Frame rate: 0.241 FPS
  449. Count of elements: 1736
  450. Stream size: 11.8 MiB (0%)
  451. Title: Portuguese (Brazil) [Full]
  452. Language: Portuguese (BR)
  453. Default: No
  454. Forced: No
  455. Text 9
  456. ID: 24
  457. Format: PGS
  458. Muxing mode: zlib
  459. Codec ID: S_HDMV/PGS
  460. Codec ID/Info: Picture based subtitle format used on BDs/HD-DVDs
  461. Duration: 1 h 41 min
  462. Bit rate: 89 b/s
  463. Frame rate: 0.001 FPS
  464. Count of elements: 6
  465. Stream size: 66.7 KiB (0%)
  466. Title: Portuguese (Brazil) [Forced]
  467. Language: Portuguese (BR)
  468. Default: No
  469. Forced: No
  470. Text 10
  471. ID: 25
  472. Format: PGS
  473. Muxing mode: zlib
  474. Codec ID: S_HDMV/PGS
  475. Codec ID/Info: Picture based subtitle format used on BDs/HD-DVDs
  476. Duration: 2 h 0 min
  477. Bit rate: 12.9 kb/s
  478. Frame rate: 0.233 FPS
  479. Count of elements: 1680
  480. Stream size: 11.1 MiB (0%)
  481. Title: Spanish (Spain) [Full]
  482. Language: Spanish (ES)
  483. Default: No
  484. Forced: No
  485. Text 11
  486. ID: 26
  487. Format: PGS
  488. Muxing mode: zlib
  489. Codec ID: S_HDMV/PGS
  490. Codec ID/Info: Picture based subtitle format used on BDs/HD-DVDs
  491. Duration: 1 h 56 min
  492. Bit rate: 287 b/s
  493. Frame rate: 0.003 FPS
  494. Count of elements: 22
  495. Stream size: 245 KiB (0%)
  496. Title: Spanish (Spain) [Forced]
  497. Language: Spanish (ES)
  498. Default: No
  499. Forced: No
  500. Text 12
  501. ID: 27
  502. Format: PGS
  503. Muxing mode: zlib
  504. Codec ID: S_HDMV/PGS
  505. Codec ID/Info: Picture based subtitle format used on BDs/HD-DVDs
  506. Duration: 1 h 59 min
  507. Bit rate: 14.2 kb/s
  508. Frame rate: 0.242 FPS
  509. Count of elements: 1740
  510. Stream size: 12.2 MiB (0%)
  511. Title: Spanish (Latin America) [Full]
  512. Language: Spanish (Latin America)
  513. Default: No
  514. Forced: No
  515. Text 13
  516. ID: 28
  517. Format: PGS
  518. Muxing mode: zlib
  519. Codec ID: S_HDMV/PGS
  520. Codec ID/Info: Picture based subtitle format used on BDs/HD-DVDs
  521. Duration: 1 h 41 min
  522. Bit rate: 81 b/s
  523. Frame rate: 0.001 FPS
  524. Count of elements: 6
  525. Stream size: 60.3 KiB (0%)
  526. Title: Spanish (Latin America) [Forced]
  527. Language: Spanish (Latin America)
  528. Default: No
  529. Forced: No
  530. Text 14
  531. ID: 29
  532. Format: PGS
  533. Muxing mode: zlib
  534. Codec ID: S_HDMV/PGS
  535. Codec ID/Info: Picture based subtitle format used on BDs/HD-DVDs
  536. Duration: 1 h 52 min
  537. Bit rate: 9 350 b/s
  538. Frame rate: 0.232 FPS
  539. Count of elements: 1572
  540. Stream size: 7.56 MiB (0%)
  541. Title: Japanese [Full]
  542. Language: Japanese
  543. Default: No
  544. Forced: No
  545. Text 15
  546. ID: 30
  547. Format: PGS
  548. Muxing mode: zlib
  549. Codec ID: S_HDMV/PGS
  550. Codec ID/Info: Picture based subtitle format used on BDs/HD-DVDs
  551. Duration: 1 h 49 min
  552. Bit rate: 198 b/s
  553. Frame rate: 0.010 FPS
  554. Count of elements: 69
  555. Stream size: 159 KiB (0%)
  556. Title: Japanese [Forced]
  557. Language: Japanese
  558. Default: No
  559. Forced: No
  560. Text 16
  561. ID: 31
  562. Format: PGS
  563. Muxing mode: zlib
  564. Codec ID: S_HDMV/PGS
  565. Codec ID/Info: Picture based subtitle format used on BDs/HD-DVDs
  566. Duration: 2 h 0 min
  567. Bit rate: 12.6 kb/s
  568. Frame rate: 0.245 FPS
  569. Count of elements: 1764
  570. Stream size: 10.8 MiB (0%)
  571. Title: Chinese (Traditional) [Full]
  572. Language: Mandarin (Hant)
  573. Default: No
  574. Forced: No
  575. Text 17
  576. ID: 32
  577. Format: PGS
  578. Muxing mode: zlib
  579. Codec ID: S_HDMV/PGS
  580. Codec ID/Info: Picture based subtitle format used on BDs/HD-DVDs
  581. Duration: 2 h 0 min
  582. Bit rate: 11.4 kb/s
  583. Frame rate: 0.167 FPS
  584. Count of elements: 1202
  585. Stream size: 9.77 MiB (0%)
  586. Title: Danish [Full]
  587. Language: Danish
  588. Default: No
  589. Forced: No
  590. Text 18
  591. ID: 33
  592. Format: PGS
  593. Muxing mode: zlib
  594. Codec ID: S_HDMV/PGS
  595. Codec ID/Info: Picture based subtitle format used on BDs/HD-DVDs
  596. Duration: 2 h 0 min
  597. Bit rate: 11.8 kb/s
  598. Frame rate: 0.241 FPS
  599. Count of elements: 1736
  600. Stream size: 10.2 MiB (0%)
  601. Title: Dutch [Full]
  602. Language: Dutch
  603. Default: No
  604. Forced: No
  605. Text 19
  606. ID: 34
  607. Format: PGS
  608. Muxing mode: zlib
  609. Codec ID: S_HDMV/PGS
  610. Codec ID/Info: Picture based subtitle format used on BDs/HD-DVDs
  611. Duration: 2 h 0 min
  612. Bit rate: 12.3 kb/s
  613. Frame rate: 0.201 FPS
  614. Count of elements: 1448
  615. Stream size: 10.6 MiB (0%)
  616. Title: Finnish [Full]
  617. Language: Finnish
  618. Default: No
  619. Forced: No
  620. Text 20
  621. ID: 35
  622. Format: PGS
  623. Muxing mode: zlib
  624. Codec ID: S_HDMV/PGS
  625. Codec ID/Info: Picture based subtitle format used on BDs/HD-DVDs
  626. Duration: 2 h 0 min
  627. Bit rate: 12.1 kb/s
  628. Frame rate: 0.180 FPS
  629. Count of elements: 1296
  630. Stream size: 10.4 MiB (0%)
  631. Title: Norwegian [Full]
  632. Language: Norwegian
  633. Default: No
  634. Forced: No
  635. Text 21
  636. ID: 36
  637. Format: PGS
  638. Muxing mode: zlib
  639. Codec ID: S_HDMV/PGS
  640. Codec ID/Info: Picture based subtitle format used on BDs/HD-DVDs
  641. Duration: 2 h 0 min
  642. Bit rate: 12.2 kb/s
  643. Frame rate: 0.167 FPS
  644. Count of elements: 1206
  645. Stream size: 10.5 MiB (0%)
  646. Title: Swedish [Full]
  647. Language: Swedish
  648. Default: No
  649. Forced: No
  650. Menu
  651. 00:00:00.000: en:Chapter 01
  652. 00:10:41.307: en:Chapter 02
  653. 00:19:05.144: en:Chapter 03
  654. 00:30:11.434: en:Chapter 04
  655. 00:42:54.572: en:Chapter 05
  656. 00:49:31.969: en:Chapter 06
  657. 00:59:54.132: en:Chapter 07
  658. 01:13:01.502: en:Chapter 08
  659. 01:22:08.423: en:Chapter 09
  660. 01:30:01.396: en:Chapter 10
  661. 01:40:38.615: en:Chapter 11
  662. 01:49:11.169: en:Chapter 12
  663. 01:53:04.986: en:Chapter 13
复制代码











回复

使用道具 举报

蓝光币
802
发表于 2024-3-15 18:18:04 | 显示全部楼层
楼主发贴辛苦了,谢谢楼主分享!我觉得蓝光电影网是注册对了!
回复

使用道具 举报

蓝光币
16
发表于 2024-3-16 16:09:14 | 显示全部楼层

这东西我收了!谢谢楼主!蓝光电影网真好!
回复

使用道具 举报

蓝光币
803
发表于 2024-3-17 18:40:18 | 显示全部楼层
楼主发贴辛苦了,谢谢楼主分享!我觉得蓝光电影网是注册对了!
回复

使用道具 举报

蓝光币
802
发表于 2024-3-18 18:44:04 | 显示全部楼层
楼主发贴辛苦了,谢谢楼主分享!我觉得蓝光电影网是注册对了!
回复

使用道具 举报

蓝光币
804
发表于 2024-3-18 18:45:30 | 显示全部楼层
楼主发贴辛苦了,谢谢楼主分享!我觉得蓝光电影网是注册对了!
回复

使用道具 举报

蓝光币
799
发表于 2024-3-19 18:40:22 | 显示全部楼层
楼主发贴辛苦了,谢谢楼主分享!我觉得蓝光电影网是注册对了!
回复

使用道具 举报

懒得打字嘛,点击右侧快捷回复 【右侧内容,后台自定义】
您需要登录后才可以回帖 登录 | 立即加入

本版积分规则

Archiver| |网站地图

Copyright © 2024 Comsenz Inc. Powered by 蓝光电影网

本站内容由用户自主分享和转载自互联网,转载目的在于传递更多信息,并不代表本网赞同其观点和对其真实性负责。

如有侵权、违反国家法律政策行为,请联系我们,我们会第一时间及时清除和处理!

举报反馈邮箱:4k1080.com@gmail.com

快速回复 返回顶部 返回列表