找回密码

查看: 1039|回复: 9

[2160p] 沙丘.Dune.2021.Eng.Fre.Ger.Ita.Spa.Cze.Hun.Pol.Hin.Jpn.2160p.BluRay.Remux.HDR.DV.HEVC.Atmos-SGF 86.23GB

[复制链接]
蓝光币
2048
发表于 2024-3-15 15:12:19 | 显示全部楼层 |阅读模式


◎译  名 沙丘 / 沙丘瀚战(港) / Dune: Part One
◎片  名 Dune
◎年  代 2021
◎产  地 美国
◎类  别 剧情 / 科幻 / 冒险
◎语  言 英语 / 汉语普通话
◎上映日期 2021-09-03(威尼斯电影节) / 2021-10-22(美国/中国大陆) / 2024-03-01(中国大陆重映)
◎IMDb评星  ★★★★★★★★☆☆
◎IMDb评分  8.0/10 from 808,860 users
◎IMDb链接  https://www.imdb.com/title/tt1160419/
◎豆瓣评星 ★★★★☆
◎豆瓣评分 7.7/10 from 667,660 users
◎豆瓣链接 https://movie.douban.com/subject/3001114/
◎片  长 156分钟
◎导  演 丹尼斯·维伦纽瓦 / Denis Villeneuve
◎演  员 提莫西·查拉梅 / Timothée Chalamet | 饰 保罗·厄崔迪 Paul Atreides
      丽贝卡·弗格森 / Rebecca Ferguson | 饰 杰西卡夫人 Lady Jessica
      奥斯卡·伊萨克 / Oscar Isaac | 饰 雷托·厄崔迪公爵 Duke Leto Atreides
      戴夫·巴蒂斯塔 / Dave Bautista | 饰 野兽拉班 Glossu Rabban
      赞达亚 / Zendaya | 饰 契尼 Chani
      杰森·莫玛 / Jason Momoa | 饰 邓肯 Duncan Idaho
      乔什·布洛林 / Josh Brolin | 饰 哥尼·哈莱克 Gurney Halleck
      哈维尔·巴登 / Javier Bardem | 饰 斯第尔格 Stilgar
      斯特兰·斯卡斯加德 / Stellan Skarsgård | 饰 哈克南男爵 Baron Vladimir Harkonnen
      夏洛特·兰普林 / Charlotte Rampling | 饰 圣母海伦 Reverend Mother Mohiam
      大卫·达斯马齐连 / David Dastmalchian | 饰 Piter De Vries
      莎伦·邓肯-布鲁斯特 / Sharon Duncan-Brewster | 饰 Liet-Kynes
      斯蒂芬·亨德森 / Stephen Henderson | 饰 Thufir Hawat
      迈克尔·纳尔多内 / Michael Nardone | 饰 Gurney Sergeant
      张震 / Chen Chang | 饰 威灵顿·岳 Dr. Yueh
      巴布斯·奥卢桑莫昆 / Babs Olusanmokun | 饰 Jamis
      奥利弗·瑞安 / Oliver Ryan | 饰 Hawat Specialist
      查理·罗尔斯 / Charlie Rawes | 饰 First Trooper
      格洛里亚·奥比安约 / Gloria Obianyo | 饰 Harah
      保罗·布林 / Paul Bullion | 饰 Sardaukar Soldier
      比约恩·弗赖贝格 / Björn Freiberg | 饰 Leto Officer
      袁之正 / Roger Yuan | 饰 Lieutenant Lanville
      乔尔·艾米丽 / Joelle Amery | 饰 哈克南女仆 Baron Servant
      卢晓彤
      费辛蒂·巴洛贡 / Fehinti Balogun | 饰 Male Fremen
      舒雅德·法瑞斯 / Souad Faress | 饰 Bene Gesserit Sister
      小彼得·斯托亚诺夫 / Peter Sztojanov Jr. | 饰 Sardaukar Soldier
      塔奇亚·纽瓦尔 / Tachia Newall | 饰 坦纳 Tanat
      理查德·卡特 / Richard Carter | 饰 Harkonnen Trooper
      本·迪洛韦 / Ben Dilloway | 饰 Sardaukar Assassin
◎编  剧 丹尼斯·维伦纽瓦 / Denis Villeneuve
      乔·斯派茨 / Jon Spaihts
      埃里克·罗思 / Eric Roth
      弗兰克·赫伯特 / Frank Herbert
◎制  片  人 理查德·P·鲁宾斯坦 / Richard P. Rubinstein
      凯文·J·安德森 / Kevin J. Anderson
      丹尼斯·维伦纽瓦 / Denis Villeneuve
      托马斯·图尔 / Thomas Tull
      坦尼亚·拉波因特 / Tanya Lapointe
      凯尔·博伊特尔 / Cale Boyter
      基姆·赫伯特 / Kim Herbert
      拜伦·梅里特 / Byron Merritt
      布莱恩·赫伯特 / Brian Herbert
◎音  乐 汉斯·季默 / Hans Zimmer
◎摄  影 格雷格·弗莱瑟 / Greig Fraser
◎剪  辑 乔·沃克 / Joe Walker
◎美  术 帕特里斯·维梅特 / Patrice Vermette
      汤姆·布朗 / Tom Brown
      理查德·罗伯茨 / Richard Roberts
      祖赞娜·西波斯 / Zsuzsanna Sipos
◎服  装 杰奎琳·韦斯特 / Jacqueline West
      鲍勃·摩根 / Bob Morgan
◎化  妆 伊娃·冯·巴尔 / Eva Von Bahr
◎简  介 
  电影《沙丘》为观众显现了一段奥秘而动人至深的豪杰之旅。天赋异禀的少年保罗·厄崔迪(提莫西·查拉梅 饰)被命运指引,为了保卫自己的家属和群众,决心前往浩大宇宙间最危险的星球,开启一场惊心动魄的冒险。与此同时,各路势力为了掠取这颗星球上一种可以开释人类最大潜力的珍贵资本而纷纷加入疆场。终极,惟有那些可以克服心里恐惧的人材能保存下去。
◎获奖情况 
  第94届奥斯卡金像奖 (2022)
  最好影片(提名) 玛丽·帕伦特,丹尼斯·维伦纽瓦,凯尔·博伊特尔
  最好改编剧本(提名) 乔·斯派茨,埃里克·罗思,丹尼斯·维伦纽瓦
  最好摄影 格雷格·弗莱瑟
  最好剪辑 乔·沃克
  最好视觉结果 保罗·兰伯特,布莱恩·康纳,特里斯坦·迈尔斯,格尔德·内泽
  最好声响 道格·亨普希尔,西奥·格林,罗恩·巴特利特,马克·马基尼,麦克·鲁斯
  最好艺术指导 祖赞娜·西波斯,帕特里斯·维梅特
  最好打扮设想(提名) 杰奎琳·韦斯特
  最好化装与发型设想(提名) 唐纳德·莫瓦特,洛维·拉森,伊娃·冯·巴尔
  最好原创配乐 汉斯·季默
  第79届金球奖 (2022)
  电影类 最好剧情片(提名)
  电影类 最好导演(提名) 丹尼斯·维伦纽瓦
  电影类 最好原创配乐 汉斯·季默
  第75届英国电影学院奖 (2022)
  电影奖 最好影片(提名)
  电影奖 最好改编剧本(提名)
  电影奖 最好摄影
  电影奖 最好剪辑(提名)
  电影奖 最好化装/发型(提名)
  电影奖 最好打扮设想(提名)
  电影奖 最好艺术指导
  电影奖 最好特别视觉结果
  电影奖 最好原创配乐
  电影奖 最好选角(提名)
  电影奖 最好音效
  第45届日本电影学院奖 (2022)
  最好外语片(提名)
  第67届意大利大卫奖 (2022)
  最好外语片(提名) 丹尼斯·维伦纽瓦
  第74届美国导演工会奖 (2022)
  最好电影导演(提名) 丹尼斯·维伦纽瓦
  第28届美国演员工会奖 (2022)
  电影最好特技群戏(提名)
  第74届美国编剧工会奖 (2022)
  电影奖 最好改编剧本(提名) 乔·斯派茨,埃里克·罗思,丹尼斯·维伦纽瓦
  第33届美国制片野生会奖 (2022)
  最好电影制片人奖(提名) 玛丽·帕伦特,丹尼斯·维伦纽瓦,凯尔·博伊特尔
  第24届美国打扮设想工会奖 (2022)
  科幻/奇异题材电影最好打扮设想(提名) 杰奎琳·韦斯特,鲍勃·摩根
  第27届美国批评家挑选电影奖 (2022)
  最好影片(提名)
  最好导演(提名) 丹尼斯·维伦纽瓦
  最好改编剧本(提名) 乔·斯派茨,埃里克·罗思,丹尼斯·维伦纽瓦
  最好摄影(提名) 格雷格·弗莱瑟
  最好剪辑(提名) 乔·沃克
  最好配乐
  最好美术指导 祖赞娜·西波斯,帕特里斯·维梅特
  最好打扮设想(提名) 杰奎琳·韦斯特,鲍勃·摩根
  最好发型化装(提名)
  最好视觉结果
  1. General
  2. Unique ID: 7092610894627499440995529747538007984 (0x555FCB7362240AB24F54A688E1657B0)
  3. Complete name: Dune.2021.Eng.Fre.Ger.Ita.Spa.Cze.Hun.Pol.Hin.Jpn.2160p.BluRay.Remux.HDR.DV.HEVC.Atmos-SGF.mkv
  4. Format: Matroska
  5. Format version: Version 4
  6. File size: 86.2 GiB
  7. Duration: 2 h 35 min
  8. Overall bit rate mode: Variable
  9. Overall bit rate: 79.4 Mb/s
  10. Frame rate: 23.976 FPS
  11. Encoded date: 2024-03-08 17:56:51 UTC
  12. Writing application: mkvmerge v82.0 ('I'm The President') 64-bit
  13. Writing library: libebml v1.4.5 + libmatroska v1.7.1
  14. Video
  15. ID: 1
  16. Format: HEVC
  17. Format/Info: High Efficiency Video Coding
  18. Format profile: Main 10@L5.1@High
  19. HDR format: Dolby Vision, Version 1.0, Profile 7.6, dvhe.07.06, BL+EL+RPU, Blu-ray compatible / SMPTE ST 2086, Version HDR10, HDR10 compatible
  20. Codec ID: V_MPEGH/ISO/HEVC
  21. Duration: 2 h 35 min
  22. Bit rate: 59.8 Mb/s
  23. Width: 3 840 pixels
  24. Height: 2 160 pixels
  25. Display aspect ratio: 16:9
  26. Frame rate mode: Constant
  27. Frame rate: 23.976 (24000/1001) FPS
  28. Color space: YUV
  29. Chroma subsampling: 4:2:0 (Type 2)
  30. Bit depth: 10 bits
  31. Bits/(Pixel*Frame): 0.300
  32. Stream size: 64.9 GiB (75%)
  33. Default: Yes
  34. Forced: No
  35. Color range: Limited
  36. Color primaries: BT.2020
  37. Transfer characteristics: PQ
  38. Matrix coefficients: BT.2020 non-constant
  39. Mastering display color primaries: Display P3
  40. Mastering display luminance: min: 0.0050 cd/m2, max: 4000 cd/m2
  41. Maximum Content Light Level: 787 cd/m2
  42. Maximum Frame-Average Light Level: 239 cd/m2
  43. Audio 1
  44. ID: 2
  45. Format: MLP FBA 16-ch
  46. Format/Info: Meridian Lossless Packing FBA with 16-channel presentation
  47. Commercial name: Dolby TrueHD with Dolby Atmos
  48. Codec ID: A_TRUEHD
  49. Duration: 2 h 35 min
  50. Bit rate mode: Variable
  51. Bit rate: 3 243 kb/s
  52. Maximum bit rate: 5 472 kb/s
  53. Channel(s): 8 channels
  54. Channel layout: L R C LFE Ls Rs Lb Rb
  55. Sampling rate: 48.0 kHz
  56. Frame rate: 1 200.000 FPS (40 SPF)
  57. Compression mode: Lossless
  58. Stream size: 3.52 GiB (4%)
  59. Title: English [Dolby TrueHD Atmos 7.1]
  60. Language: English
  61. Default: Yes
  62. Forced: No
  63. Number of dynamic objects: 11
  64. Bed channel count: 1 channel
  65. Bed channel configuration: LFE
  66. Audio 2
  67. ID: 3
  68. Format: AC-3
  69. Format/Info: Audio Coding 3
  70. Commercial name: Dolby Digital
  71. Format settings: Dolby Surround EX
  72. Codec ID: A_AC3
  73. Duration: 2 h 35 min
  74. Bit rate mode: Constant
  75. Bit rate: 448 kb/s
  76. Channel(s): 6 channels
  77. Channel layout: L R C LFE Ls Rs
  78. Sampling rate: 48.0 kHz
  79. Frame rate: 31.250 FPS (1536 SPF)
  80. Compression mode: Lossy
  81. Stream size: 498 MiB (0%)
  82. Title: English [Dolby Digital EX 5.1]
  83. Language: English
  84. Service kind: Complete Main
  85. Default: No
  86. Forced: No
  87. Audio 3
  88. ID: 4
  89. Format: AC-3
  90. Format/Info: Audio Coding 3
  91. Commercial name: Dolby Digital
  92. Codec ID: A_AC3
  93. Duration: 2 h 35 min
  94. Bit rate mode: Constant
  95. Bit rate: 448 kb/s
  96. Channel(s): 6 channels
  97. Channel layout: L R C LFE Ls Rs
  98. Sampling rate: 48.0 kHz
  99. Frame rate: 31.250 FPS (1536 SPF)
  100. Compression mode: Lossy
  101. Stream size: 498 MiB (0%)
  102. Title: English (United States) [Audio Description]
  103. Language: English (US)
  104. Service kind: Complete Main
  105. Default: No
  106. Forced: No
  107. Audio 4
  108. ID: 5
  109. Format: AC-3
  110. Format/Info: Audio Coding 3
  111. Commercial name: Dolby Digital
  112. Codec ID: A_AC3
  113. Duration: 2 h 35 min
  114. Bit rate mode: Constant
  115. Bit rate: 448 kb/s
  116. Channel(s): 6 channels
  117. Channel layout: L R C LFE Ls Rs
  118. Sampling rate: 48.0 kHz
  119. Frame rate: 31.250 FPS (1536 SPF)
  120. Compression mode: Lossy
  121. Stream size: 498 MiB (0%)
  122. Title: English (United Kingdom) [Audio Description]
  123. Language: English (GB)
  124. Service kind: Complete Main
  125. Default: No
  126. Forced: No
  127. Audio 5
  128. ID: 6
  129. Format: MLP FBA 16-ch
  130. Format/Info: Meridian Lossless Packing FBA with 16-channel presentation
  131. Commercial name: Dolby TrueHD with Dolby Atmos
  132. Codec ID: A_TRUEHD
  133. Duration: 2 h 35 min
  134. Bit rate mode: Variable
  135. Bit rate: 3 230 kb/s
  136. Maximum bit rate: 5 310 kb/s
  137. Channel(s): 8 channels
  138. Channel layout: L R C LFE Ls Rs Lb Rb
  139. Sampling rate: 48.0 kHz
  140. Frame rate: 1 200.000 FPS (40 SPF)
  141. Compression mode: Lossless
  142. Stream size: 3.51 GiB (4%)
  143. Title: French (France) [Dolby TrueHD Atmos 7.1]
  144. Language: French (FR)
  145. Default: No
  146. Forced: No
  147. Number of dynamic objects: 11
  148. Bed channel count: 1 channel
  149. Bed channel configuration: LFE
  150. Audio 6
  151. ID: 7
  152. Format: AC-3
  153. Format/Info: Audio Coding 3
  154. Commercial name: Dolby Digital
  155. Codec ID: A_AC3
  156. Duration: 2 h 35 min
  157. Bit rate mode: Constant
  158. Bit rate: 448 kb/s
  159. Channel(s): 6 channels
  160. Channel layout: L R C LFE Ls Rs
  161. Sampling rate: 48.0 kHz
  162. Frame rate: 31.250 FPS (1536 SPF)
  163. Compression mode: Lossy
  164. Stream size: 498 MiB (0%)
  165. Title: French (France) [Dolby Digital 5.1]
  166. Language: French (FR)
  167. Service kind: Complete Main
  168. Default: No
  169. Forced: No
  170. Audio 7
  171. ID: 8
  172. Format: AC-3
  173. Format/Info: Audio Coding 3
  174. Commercial name: Dolby Digital
  175. Codec ID: A_AC3
  176. Duration: 2 h 35 min
  177. Bit rate mode: Constant
  178. Bit rate: 448 kb/s
  179. Channel(s): 6 channels
  180. Channel layout: L R C LFE Ls Rs
  181. Sampling rate: 48.0 kHz
  182. Frame rate: 31.250 FPS (1536 SPF)
  183. Compression mode: Lossy
  184. Stream size: 498 MiB (0%)
  185. Title: French (Canada) [Dolby Digital 5.1]
  186. Language: French (CA)
  187. Service kind: Complete Main
  188. Default: No
  189. Forced: No
  190. Audio 8
  191. ID: 9
  192. Format: MLP FBA 16-ch
  193. Format/Info: Meridian Lossless Packing FBA with 16-channel presentation
  194. Commercial name: Dolby TrueHD with Dolby Atmos
  195. Codec ID: A_TRUEHD
  196. Duration: 2 h 35 min
  197. Bit rate mode: Variable
  198. Bit rate: 3 243 kb/s
  199. Maximum bit rate: 5 547 kb/s
  200. Channel(s): 8 channels
  201. Channel layout: L R C LFE Ls Rs Lb Rb
  202. Sampling rate: 48.0 kHz
  203. Frame rate: 1 200.000 FPS (40 SPF)
  204. Compression mode: Lossless
  205. Stream size: 3.52 GiB (4%)
  206. Title: German [Dolby TrueHD Atmos 7.1]
  207. Language: German
  208. Default: No
  209. Forced: No
  210. Number of dynamic objects: 11
  211. Bed channel count: 1 channel
  212. Bed channel configuration: LFE
  213. Audio 9
  214. ID: 10
  215. Format: AC-3
  216. Format/Info: Audio Coding 3
  217. Commercial name: Dolby Digital
  218. Codec ID: A_AC3
  219. Duration: 2 h 35 min
  220. Bit rate mode: Constant
  221. Bit rate: 448 kb/s
  222. Channel(s): 6 channels
  223. Channel layout: L R C LFE Ls Rs
  224. Sampling rate: 48.0 kHz
  225. Frame rate: 31.250 FPS (1536 SPF)
  226. Compression mode: Lossy
  227. Stream size: 498 MiB (0%)
  228. Title: German [Dolby Digital 5.1]
  229. Language: German
  230. Service kind: Complete Main
  231. Default: No
  232. Forced: No
  233. Audio 10
  234. ID: 11
  235. Format: MLP FBA 16-ch
  236. Format/Info: Meridian Lossless Packing FBA with 16-channel presentation
  237. Commercial name: Dolby TrueHD with Dolby Atmos
  238. Codec ID: A_TRUEHD
  239. Duration: 2 h 35 min
  240. Bit rate mode: Variable
  241. Bit rate: 3 261 kb/s
  242. Maximum bit rate: 5 283 kb/s
  243. Channel(s): 8 channels
  244. Channel layout: L R C LFE Ls Rs Lb Rb
  245. Sampling rate: 48.0 kHz
  246. Frame rate: 1 200.000 FPS (40 SPF)
  247. Compression mode: Lossless
  248. Stream size: 3.54 GiB (4%)
  249. Title: Italian [Dolby TrueHD Atmos 7.1]
  250. Language: Italian
  251. Default: No
  252. Forced: No
  253. Number of dynamic objects: 11
  254. Bed channel count: 1 channel
  255. Bed channel configuration: LFE
  256. Audio 11
  257. ID: 12
  258. Format: AC-3
  259. Format/Info: Audio Coding 3
  260. Commercial name: Dolby Digital
  261. Codec ID: A_AC3
  262. Duration: 2 h 35 min
  263. Bit rate mode: Constant
  264. Bit rate: 448 kb/s
  265. Channel(s): 6 channels
  266. Channel layout: L R C LFE Ls Rs
  267. Sampling rate: 48.0 kHz
  268. Frame rate: 31.250 FPS (1536 SPF)
  269. Compression mode: Lossy
  270. Stream size: 498 MiB (0%)
  271. Title: Italian [Dolby Digital 5.1]
  272. Language: Italian
  273. Service kind: Complete Main
  274. Default: No
  275. Forced: No
  276. Audio 12
  277. ID: 13
  278. Format: AC-3
  279. Format/Info: Audio Coding 3
  280. Commercial name: Dolby Digital
  281. Codec ID: A_AC3
  282. Duration: 2 h 35 min
  283. Bit rate mode: Constant
  284. Bit rate: 448 kb/s
  285. Channel(s): 6 channels
  286. Channel layout: L R C LFE Ls Rs
  287. Sampling rate: 48.0 kHz
  288. Frame rate: 31.250 FPS (1536 SPF)
  289. Compression mode: Lossy
  290. Stream size: 498 MiB (0%)
  291. Title: Spanish (Spain) [Dolby Digital 5.1]
  292. Language: Spanish (ES)
  293. Service kind: Complete Main
  294. Default: No
  295. Forced: No
  296. Audio 13
  297. ID: 14
  298. Format: AC-3
  299. Format/Info: Audio Coding 3
  300. Commercial name: Dolby Digital
  301. Codec ID: A_AC3
  302. Duration: 2 h 35 min
  303. Bit rate mode: Constant
  304. Bit rate: 448 kb/s
  305. Channel(s): 6 channels
  306. Channel layout: L R C LFE Ls Rs
  307. Sampling rate: 48.0 kHz
  308. Frame rate: 31.250 FPS (1536 SPF)
  309. Compression mode: Lossy
  310. Stream size: 498 MiB (0%)
  311. Title: Spanish (Latin America) [Dolby Digital 5.1]
  312. Language: Spanish (Latin America)
  313. Service kind: Complete Main
  314. Default: No
  315. Forced: No
  316. Audio 14
  317. ID: 15
  318. Format: AC-3
  319. Format/Info: Audio Coding 3
  320. Commercial name: Dolby Digital
  321. Codec ID: A_AC3
  322. Duration: 2 h 35 min
  323. Bit rate mode: Constant
  324. Bit rate: 448 kb/s
  325. Channel(s): 6 channels
  326. Channel layout: L R C LFE Ls Rs
  327. Sampling rate: 48.0 kHz
  328. Frame rate: 31.250 FPS (1536 SPF)
  329. Compression mode: Lossy
  330. Stream size: 498 MiB (0%)
  331. Title: Czech [Dolby Digital 5.1]
  332. Language: Czech
  333. Service kind: Complete Main
  334. Default: No
  335. Forced: No
  336. Audio 15
  337. ID: 16
  338. Format: AC-3
  339. Format/Info: Audio Coding 3
  340. Commercial name: Dolby Digital
  341. Codec ID: A_AC3
  342. Duration: 2 h 35 min
  343. Bit rate mode: Constant
  344. Bit rate: 448 kb/s
  345. Channel(s): 6 channels
  346. Channel layout: L R C LFE Ls Rs
  347. Sampling rate: 48.0 kHz
  348. Frame rate: 31.250 FPS (1536 SPF)
  349. Compression mode: Lossy
  350. Stream size: 498 MiB (0%)
  351. Title: Hungarian [Dolby Digital 5.1]
  352. Language: Hungarian
  353. Service kind: Complete Main
  354. Default: No
  355. Forced: No
  356. Audio 16
  357. ID: 17
  358. Format: AC-3
  359. Format/Info: Audio Coding 3
  360. Commercial name: Dolby Digital
  361. Codec ID: A_AC3
  362. Duration: 2 h 35 min
  363. Bit rate mode: Constant
  364. Bit rate: 448 kb/s
  365. Channel(s): 6 channels
  366. Channel layout: L R C LFE Ls Rs
  367. Sampling rate: 48.0 kHz
  368. Frame rate: 31.250 FPS (1536 SPF)
  369. Compression mode: Lossy
  370. Stream size: 498 MiB (0%)
  371. Title: Polish [Dolby Digital 5.1]
  372. Language: Polish
  373. Service kind: Complete Main
  374. Default: No
  375. Forced: No
  376. Audio 17
  377. ID: 18
  378. Format: AC-3
  379. Format/Info: Audio Coding 3
  380. Commercial name: Dolby Digital
  381. Codec ID: A_AC3
  382. Duration: 2 h 35 min
  383. Bit rate mode: Constant
  384. Bit rate: 448 kb/s
  385. Channel(s): 6 channels
  386. Channel layout: L R C LFE Ls Rs
  387. Sampling rate: 48.0 kHz
  388. Frame rate: 31.250 FPS (1536 SPF)
  389. Compression mode: Lossy
  390. Stream size: 498 MiB (0%)
  391. Title: Hindi [Dolby Digital 5.1]
  392. Language: Hindi
  393. Service kind: Complete Main
  394. Default: No
  395. Forced: No
  396. Audio 18
  397. ID: 19
  398. Format: AC-3
  399. Format/Info: Audio Coding 3
  400. Commercial name: Dolby Digital
  401. Codec ID: A_AC3
  402. Duration: 2 h 35 min
  403. Bit rate mode: Constant
  404. Bit rate: 448 kb/s
  405. Channel(s): 6 channels
  406. Channel layout: L R C LFE Ls Rs
  407. Sampling rate: 48.0 kHz
  408. Frame rate: 31.250 FPS (1536 SPF)
  409. Compression mode: Lossy
  410. Stream size: 498 MiB (0%)
  411. Title: Japanese [Dolby Digital 5.1]
  412. Language: Japanese
  413. Service kind: Complete Main
  414. Default: No
  415. Forced: No
  416. Text 1
  417. ID: 20
  418. Format: PGS
  419. Muxing mode: zlib
  420. Codec ID: S_HDMV/PGS
  421. Codec ID/Info: Picture based subtitle format used on BDs/HD-DVDs
  422. Duration: 2 h 26 min
  423. Bit rate: 26.0 kb/s
  424. Frame rate: 0.387 FPS
  425. Count of elements: 3406
  426. Stream size: 27.3 MiB (0%)
  427. Title: English [SDH]
  428. Language: English
  429. Default: No
  430. Forced: No
  431. Text 2
  432. ID: 21
  433. Format: PGS
  434. Muxing mode: zlib
  435. Codec ID: S_HDMV/PGS
  436. Codec ID/Info: Picture based subtitle format used on BDs/HD-DVDs
  437. Duration: 2 h 35 min
  438. Bit rate: 18.4 kb/s
  439. Frame rate: 0.268 FPS
  440. Count of elements: 2498
  441. Stream size: 20.4 MiB (0%)
  442. Title: French [Full]
  443. Language: French
  444. Default: No
  445. Forced: No
  446. Text 3
  447. ID: 22
  448. Format: PGS
  449. Muxing mode: zlib
  450. Codec ID: S_HDMV/PGS
  451. Codec ID/Info: Picture based subtitle format used on BDs/HD-DVDs
  452. Duration: 2 h 16 min
  453. Bit rate: 905 b/s
  454. Frame rate: 0.012 FPS
  455. Count of elements: 102
  456. Stream size: 907 KiB (0%)
  457. Title: French (France) [Forced]
  458. Language: French (FR)
  459. Default: No
  460. Forced: No
  461. Text 4
  462. ID: 23
  463. Format: PGS
  464. Muxing mode: zlib
  465. Codec ID: S_HDMV/PGS
  466. Codec ID/Info: Picture based subtitle format used on BDs/HD-DVDs
  467. Duration: 2 h 16 min
  468. Bit rate: 963 b/s
  469. Frame rate: 0.012 FPS
  470. Count of elements: 100
  471. Stream size: 965 KiB (0%)
  472. Title: French (Canada) [Forced]
  473. Language: French (CA)
  474. Default: No
  475. Forced: No
  476. Text 5
  477. ID: 24
  478. Format: PGS
  479. Muxing mode: zlib
  480. Codec ID: S_HDMV/PGS
  481. Codec ID/Info: Picture based subtitle format used on BDs/HD-DVDs
  482. Duration: 2 h 35 min
  483. Bit rate: 24.1 kb/s
  484. Frame rate: 0.275 FPS
  485. Count of elements: 2560
  486. Stream size: 26.8 MiB (0%)
  487. Title: German [Full]
  488. Language: German
  489. Default: No
  490. Forced: No
  491. Text 6
  492. ID: 25
  493. Format: PGS
  494. Muxing mode: zlib
  495. Codec ID: S_HDMV/PGS
  496. Codec ID/Info: Picture based subtitle format used on BDs/HD-DVDs
  497. Duration: 2 h 16 min
  498. Bit rate: 1 007 b/s
  499. Frame rate: 0.012 FPS
  500. Count of elements: 96
  501. Stream size: 1 009 KiB (0%)
  502. Title: German [Forced]
  503. Language: German
  504. Default: No
  505. Forced: No
  506. Text 7
  507. ID: 26
  508. Format: PGS
  509. Muxing mode: zlib
  510. Codec ID: S_HDMV/PGS
  511. Codec ID/Info: Picture based subtitle format used on BDs/HD-DVDs
  512. Duration: 2 h 27 min
  513. Bit rate: 27.2 kb/s
  514. Frame rate: 0.397 FPS
  515. Count of elements: 3510
  516. Stream size: 28.7 MiB (0%)
  517. Title: Italian [Full]
  518. Language: Italian
  519. Default: No
  520. Forced: No
  521. Text 8
  522. ID: 27
  523. Format: PGS
  524. Muxing mode: zlib
  525. Codec ID: S_HDMV/PGS
  526. Codec ID/Info: Picture based subtitle format used on BDs/HD-DVDs
  527. Duration: 2 h 27 min
  528. Bit rate: 851 b/s
  529. Frame rate: 0.012 FPS
  530. Count of elements: 102
  531. Stream size: 920 KiB (0%)
  532. Title: Italian [Forced]
  533. Language: Italian
  534. Default: No
  535. Forced: No
  536. Text 9
  537. ID: 28
  538. Format: PGS
  539. Muxing mode: zlib
  540. Codec ID: S_HDMV/PGS
  541. Codec ID/Info: Picture based subtitle format used on BDs/HD-DVDs
  542. Duration: 2 h 35 min
  543. Bit rate: 19.9 kb/s
  544. Frame rate: 0.263 FPS
  545. Count of elements: 2452
  546. Stream size: 22.1 MiB (0%)
  547. Title: Spanish (Spain) [Full]
  548. Language: Spanish (ES)
  549. Default: No
  550. Forced: No
  551. Text 10
  552. ID: 29
  553. Format: PGS
  554. Muxing mode: zlib
  555. Codec ID: S_HDMV/PGS
  556. Codec ID/Info: Picture based subtitle format used on BDs/HD-DVDs
  557. Duration: 2 h 27 min
  558. Bit rate: 877 b/s
  559. Frame rate: 0.012 FPS
  560. Count of elements: 102
  561. Stream size: 948 KiB (0%)
  562. Title: Spanish (Spain) [Forced]
  563. Language: Spanish (ES)
  564. Default: No
  565. Forced: No
  566. Text 11
  567. ID: 30
  568. Format: PGS
  569. Muxing mode: zlib
  570. Codec ID: S_HDMV/PGS
  571. Codec ID/Info: Picture based subtitle format used on BDs/HD-DVDs
  572. Duration: 2 h 35 min
  573. Bit rate: 19.8 kb/s
  574. Frame rate: 0.270 FPS
  575. Count of elements: 2512
  576. Stream size: 22.0 MiB (0%)
  577. Title: Spanish (Latin America) [Full]
  578. Language: Spanish (Latin America)
  579. Default: No
  580. Forced: No
  581. Text 12
  582. ID: 31
  583. Format: PGS
  584. Muxing mode: zlib
  585. Codec ID: S_HDMV/PGS
  586. Codec ID/Info: Picture based subtitle format used on BDs/HD-DVDs
  587. Duration: 2 h 27 min
  588. Bit rate: 866 b/s
  589. Frame rate: 0.012 FPS
  590. Count of elements: 102
  591. Stream size: 936 KiB (0%)
  592. Title: Spanish (Latin America) [Forced]
  593. Language: Spanish (Latin America)
  594. Default: No
  595. Forced: No
  596. Text 13
  597. ID: 32
  598. Format: PGS
  599. Muxing mode: zlib
  600. Codec ID: S_HDMV/PGS
  601. Codec ID/Info: Picture based subtitle format used on BDs/HD-DVDs
  602. Duration: 2 h 35 min
  603. Bit rate: 17.8 kb/s
  604. Frame rate: 0.270 FPS
  605. Count of elements: 2512
  606. Stream size: 19.7 MiB (0%)
  607. Title: Czech [Full]
  608. Language: Czech
  609. Default: No
  610. Forced: No
  611. Text 14
  612. ID: 33
  613. Format: PGS
  614. Muxing mode: zlib
  615. Codec ID: S_HDMV/PGS
  616. Codec ID/Info: Picture based subtitle format used on BDs/HD-DVDs
  617. Duration: 2 h 27 min
  618. Bit rate: 771 b/s
  619. Frame rate: 0.012 FPS
  620. Count of elements: 102
  621. Stream size: 834 KiB (0%)
  622. Title: Czech [Forced]
  623. Language: Czech
  624. Default: No
  625. Forced: No
  626. Text 15
  627. ID: 34
  628. Format: PGS
  629. Muxing mode: zlib
  630. Codec ID: S_HDMV/PGS
  631. Codec ID/Info: Picture based subtitle format used on BDs/HD-DVDs
  632. Duration: 2 h 35 min
  633. Bit rate: 20.8 kb/s
  634. Frame rate: 0.271 FPS
  635. Count of elements: 2528
  636. Stream size: 23.1 MiB (0%)
  637. Title: Hungarian [Full]
  638. Language: Hungarian
  639. Default: No
  640. Forced: No
  641. Text 16
  642. ID: 35
  643. Format: PGS
  644. Muxing mode: zlib
  645. Codec ID: S_HDMV/PGS
  646. Codec ID/Info: Picture based subtitle format used on BDs/HD-DVDs
  647. Duration: 2 h 27 min
  648. Bit rate: 888 b/s
  649. Frame rate: 0.012 FPS
  650. Count of elements: 102
  651. Stream size: 960 KiB (0%)
  652. Title: Hungarian [Forced]
  653. Language: Hungarian
  654. Default: No
  655. Forced: No
  656. Text 17
  657. ID: 36
  658. Format: PGS
  659. Muxing mode: zlib
  660. Codec ID: S_HDMV/PGS
  661. Codec ID/Info: Picture based subtitle format used on BDs/HD-DVDs
  662. Duration: 2 h 35 min
  663. Bit rate: 19.3 kb/s
  664. Frame rate: 0.267 FPS
  665. Count of elements: 2488
  666. Stream size: 21.4 MiB (0%)
  667. Title: Polish [Full]
  668. Language: Polish
  669. Default: No
  670. Forced: No
  671. Text 18
  672. ID: 37
  673. Format: PGS
  674. Muxing mode: zlib
  675. Codec ID: S_HDMV/PGS
  676. Codec ID/Info: Picture based subtitle format used on BDs/HD-DVDs
  677. Duration: 2 h 16 min
  678. Bit rate: 685 b/s
  679. Frame rate: 0.012 FPS
  680. Count of elements: 100
  681. Stream size: 686 KiB (0%)
  682. Title: Hindi [Forced]
  683. Language: Hindi
  684. Default: No
  685. Forced: No
  686. Text 19
  687. ID: 38
  688. Format: PGS
  689. Muxing mode: zlib
  690. Codec ID: S_HDMV/PGS
  691. Codec ID/Info: Picture based subtitle format used on BDs/HD-DVDs
  692. Duration: 2 h 26 min
  693. Bit rate: 14.5 kb/s
  694. Frame rate: 0.264 FPS
  695. Count of elements: 2322
  696. Stream size: 15.2 MiB (0%)
  697. Title: Japanese [Full]
  698. Language: Japanese
  699. Default: No
  700. Forced: No
  701. Text 20
  702. ID: 39
  703. Format: PGS
  704. Muxing mode: zlib
  705. Codec ID: S_HDMV/PGS
  706. Codec ID/Info: Picture based subtitle format used on BDs/HD-DVDs
  707. Duration: 2 h 16 min
  708. Bit rate: 776 b/s
  709. Frame rate: 0.012 FPS
  710. Count of elements: 102
  711. Stream size: 777 KiB (0%)
  712. Title: Japanese [Forced]
  713. Language: Japanese
  714. Default: No
  715. Forced: No
  716. Text 21
  717. ID: 40
  718. Format: PGS
  719. Muxing mode: zlib
  720. Codec ID: S_HDMV/PGS
  721. Codec ID/Info: Picture based subtitle format used on BDs/HD-DVDs
  722. Duration: 2 h 35 min
  723. Bit rate: 18.4 kb/s
  724. Frame rate: 0.268 FPS
  725. Count of elements: 2500
  726. Stream size: 20.5 MiB (0%)
  727. Title: Bulgarian [Full]
  728. Language: Bulgarian
  729. Default: No
  730. Forced: No
  731. Text 22
  732. ID: 41
  733. Format: PGS
  734. Muxing mode: zlib
  735. Codec ID: S_HDMV/PGS
  736. Codec ID/Info: Picture based subtitle format used on BDs/HD-DVDs
  737. Duration: 2 h 35 min
  738. Bit rate: 19.8 kb/s
  739. Frame rate: 0.253 FPS
  740. Count of elements: 2360
  741. Stream size: 21.9 MiB (0%)
  742. Title: Chinese (Cantonese) [Full]
  743. Language: Cantonese (Hant)
  744. Default: No
  745. Forced: No
  746. Text 23
  747. ID: 42
  748. Format: PGS
  749. Muxing mode: zlib
  750. Codec ID: S_HDMV/PGS
  751. Codec ID/Info: Picture based subtitle format used on BDs/HD-DVDs
  752. Duration: 2 h 35 min
  753. Bit rate: 18.3 kb/s
  754. Frame rate: 0.270 FPS
  755. Count of elements: 2514
  756. Stream size: 20.3 MiB (0%)
  757. Title: Chinese (Traditional) [Full]
  758. Language: Mandarin (Hant)
  759. Default: No
  760. Forced: No
  761. Text 24
  762. ID: 43
  763. Format: PGS
  764. Muxing mode: zlib
  765. Codec ID: S_HDMV/PGS
  766. Codec ID/Info: Picture based subtitle format used on BDs/HD-DVDs
  767. Duration: 2 h 35 min
  768. Bit rate: 17.2 kb/s
  769. Frame rate: 0.191 FPS
  770. Count of elements: 1778
  771. Stream size: 19.1 MiB (0%)
  772. Title: Danish [Full]
  773. Language: Danish
  774. Default: No
  775. Forced: No
  776. Text 25
  777. ID: 44
  778. Format: PGS
  779. Muxing mode: zlib
  780. Codec ID: S_HDMV/PGS
  781. Codec ID/Info: Picture based subtitle format used on BDs/HD-DVDs
  782. Duration: 2 h 35 min
  783. Bit rate: 18.3 kb/s
  784. Frame rate: 0.199 FPS
  785. Count of elements: 1856
  786. Stream size: 20.4 MiB (0%)
  787. Title: Dutch [Full]
  788. Language: Dutch
  789. Default: No
  790. Forced: No
  791. Text 26
  792. ID: 45
  793. Format: PGS
  794. Muxing mode: zlib
  795. Codec ID: S_HDMV/PGS
  796. Codec ID/Info: Picture based subtitle format used on BDs/HD-DVDs
  797. Duration: 2 h 35 min
  798. Bit rate: 19.8 kb/s
  799. Frame rate: 0.271 FPS
  800. Count of elements: 2528
  801. Stream size: 21.9 MiB (0%)
  802. Title: Finnish [Full]
  803. Language: Finnish
  804. Default: No
  805. Forced: No
  806. Text 27
  807. ID: 46
  808. Format: PGS
  809. Muxing mode: zlib
  810. Codec ID: S_HDMV/PGS
  811. Codec ID/Info: Picture based subtitle format used on BDs/HD-DVDs
  812. Duration: 2 h 35 min
  813. Bit rate: 20.3 kb/s
  814. Frame rate: 0.268 FPS
  815. Count of elements: 2492
  816. Stream size: 22.5 MiB (0%)
  817. Title: Greek [Full]
  818. Language: Greek
  819. Default: No
  820. Forced: No
  821. Text 28
  822. ID: 47
  823. Format: PGS
  824. Muxing mode: zlib
  825. Codec ID: S_HDMV/PGS
  826. Codec ID/Info: Picture based subtitle format used on BDs/HD-DVDs
  827. Duration: 2 h 35 min
  828. Bit rate: 12.7 kb/s
  829. Frame rate: 0.268 FPS
  830. Count of elements: 2498
  831. Stream size: 14.1 MiB (0%)
  832. Title: Korean [Full]
  833. Language: Korean
  834. Default: No
  835. Forced: No
  836. Text 29
  837. ID: 48
  838. Format: PGS
  839. Muxing mode: zlib
  840. Codec ID: S_HDMV/PGS
  841. Codec ID/Info: Picture based subtitle format used on BDs/HD-DVDs
  842. Duration: 2 h 35 min
  843. Bit rate: 17.8 kb/s
  844. Frame rate: 0.206 FPS
  845. Count of elements: 1918
  846. Stream size: 19.8 MiB (0%)
  847. Title: Norwegian [Full]
  848. Language: Norwegian
  849. Default: No
  850. Forced: No
  851. Text 30
  852. ID: 49
  853. Format: PGS
  854. Muxing mode: zlib
  855. Codec ID: S_HDMV/PGS
  856. Codec ID/Info: Picture based subtitle format used on BDs/HD-DVDs
  857. Duration: 2 h 35 min
  858. Bit rate: 18.4 kb/s
  859. Frame rate: 0.254 FPS
  860. Count of elements: 2368
  861. Stream size: 20.4 MiB (0%)
  862. Title: Romanian [Full]
  863. Language: Romanian
  864. Default: No
  865. Forced: No
  866. Text 31
  867. ID: 50
  868. Format: PGS
  869. Muxing mode: zlib
  870. Codec ID: S_HDMV/PGS
  871. Codec ID/Info: Picture based subtitle format used on BDs/HD-DVDs
  872. Duration: 2 h 35 min
  873. Bit rate: 17.6 kb/s
  874. Frame rate: 0.207 FPS
  875. Count of elements: 1926
  876. Stream size: 19.6 MiB (0%)
  877. Title: Swedish [Full]
  878. Language: Swedish
  879. Default: No
  880. Forced: No
  881. Menu
  882. 00:00:00.000: en:Chapter 01
  883. 00:03:15.987: en:Chapter 02
  884. 00:12:54.774: en:Chapter 03
  885. 00:22:00.569: en:Chapter 04
  886. 00:29:16.755: en:Chapter 05
  887. 00:39:10.931: en:Chapter 06
  888. 00:47:19.795: en:Chapter 07
  889. 00:56:53.493: en:Chapter 08
  890. 01:06:50.381: en:Chapter 09
  891. 01:16:44.891: en:Chapter 10
  892. 01:26:00.655: en:Chapter 11
  893. 01:36:00.087: en:Chapter 12
  894. 01:45:09.469: en:Chapter 13
  895. 01:53:50.323: en:Chapter 14
  896. 02:03:38.411: en:Chapter 15
  897. 02:12:13.008: en:Chapter 16
  898. 02:20:45.770: en:Chapter 17
  899. 02:27:27.630: en:Chapter 18
复制代码










相关帖子

回复

使用道具 举报

蓝光币
857
发表于 2024-3-15 18:23:04 | 显示全部楼层
楼主发贴辛苦了,谢谢楼主分享!我觉得蓝光电影网是注册对了!
回复

使用道具 举报

蓝光币
31
发表于 2024-3-16 15:01:17 | 显示全部楼层

这个帖子不回对不起自己!我想我是一天也不能离开蓝光电影网。
回复

使用道具 举报

蓝光币
42
发表于 2024-3-16 16:04:50 | 显示全部楼层
楼主发贴辛苦了,谢谢楼主分享!我觉得蓝光电影网是注册对了!
回复

使用道具 举报

蓝光币
855
发表于 2024-3-17 18:49:48 | 显示全部楼层
楼主发贴辛苦了,谢谢楼主分享!我觉得蓝光电影网是注册对了!
回复

使用道具 举报

蓝光币
1
发表于 2024-3-19 09:15:57 | 显示全部楼层
这部电影怎么说呢,个人感觉情节是一般般的,但是音效确实是一流的,很不错的片子
回复

使用道具 举报

蓝光币
857
发表于 2024-3-19 18:46:24 | 显示全部楼层
楼主发贴辛苦了,谢谢楼主分享!我觉得蓝光电影网是注册对了!
回复

使用道具 举报

蓝光币
366
发表于 2024-3-20 11:17:36 | 显示全部楼层
楼主发贴辛苦了,谢谢楼主分享
回复

使用道具 举报

蓝光币
1212
发表于 2024-3-20 15:41:23 | 显示全部楼层

这东西我收了!谢谢楼主!蓝光电影网真好!
回复

使用道具 举报

蓝光币
1
发表于 2024-3-29 17:45:14 | 显示全部楼层
这个帖子不回对不起自己!我想我是一天也不能离开蓝光电影网。
回复

使用道具 举报

懒得打字嘛,点击右侧快捷回复 【右侧内容,后台自定义】
您需要登录后才可以回帖 登录 | 立即加入

本版积分规则

Archiver| |网站地图

Copyright © 2024 Comsenz Inc. Powered by 蓝光电影网

本站内容由用户自主分享和转载自互联网,转载目的在于传递更多信息,并不代表本网赞同其观点和对其真实性负责。

如有侵权、违反国家法律政策行为,请联系我们,我们会第一时间及时清除和处理!

举报反馈邮箱:4k1080.com@gmail.com

快速回复 返回顶部 返回列表