找回密码

查看: 331|回复: 0

[科幻] 可怜的东西.Poor.Things.2023.Eng.Fre.Ger.Ita.Spa.1080p.BluRay.Remux.AVC.DTS-HD.MA-SGF 39.01GB

[复制链接]
蓝光币
1917
发表于 2024-3-15 15:15:40 | 显示全部楼层 |阅读模式


◎译  名 不幸的工具
◎片  名 Poor Things
◎年  代 2023
◎产  地 爱尔兰 / 英国 / 美国 / 匈牙利
◎类  别 剧情 / 笑剧 / 恋爱 / 科幻
◎语  言 英语 / 法语 / 葡萄牙语
◎上映日期 2023-09-01(威尼斯电影节) / 2023-12-08(美国)
◎IMDb评星  ★★★★★★★★☆☆
◎IMDb评分  8.1/10 from 168,691 users
◎IMDb链接  https://www.imdb.com/title/tt14230458/
◎豆瓣评星 ★★★✦☆
◎豆瓣评分 7.1/10 from 87,621 users
◎豆瓣链接 https://movie.douban.com/subject/35350109/
◎片  长 141分钟
◎导  演 欧格斯·兰斯莫斯 / Yorgos Lanthimos
◎演  员 艾玛·斯通 / Emma Stone | 饰 Belle Baxter
      马克·鲁弗洛 / Mark Ruffalo | 饰 Duncan Wedderburn
      威廉·达福 / Willem Dafoe | 饰 Dr. Godwin Baxter
      拉米·尤素夫 / Ramy Youssef | 饰 Max McCandless
      克里斯托弗·阿波特 / Christopher Abbott | 饰 Alfie Blessington
      苏西·本巴 / Suzy Bemba | 饰 Toinette
      杰洛德·卡尔迈克 / Jerrod Carmichael | 饰 Harry Astley
      凯瑟琳·亨特 / Kathryn Hunter | 饰 Swiney
      薇琪·佩珀代因 / Vicki Pepperdine | 饰 Mrs. Prim
      玛格丽特·库里 / Margaret Qualley | 饰 Felicity
      汉娜·许古拉 / Hanna Schygulla | 饰 Martha Von Kurtzroc
      杰克·巴顿 / Jack Barton | 饰 Fop #1
      查理·希斯科克 / Charlie Hiscock | 饰 Fop #2
      阿提拉·多拜 / Attila Dobai | 饰 Hapless Student
      艾玛·欣德尔 / Emma Hindle | 饰 Woman with Kid in London Street
      安德斯·奥洛夫·格伦德伯格 / Anders Olof Grundberg | 饰 Kid in London Street
      艾提拉·凯科斯克麦西 / Attila Kecskeméthy | 饰 Burly Guy
      朱西马尔·巴尔博萨 / Jucimar Barbosa | 饰 Lisbon Doorman
      卡米尼奥 / Carminho | 饰 Fado Singing Woman
      安杰拉·保拉·史丹德尔 / Angela Paula Stander | 饰 Arguing Woman
      古斯塔沃·戈麦斯 / Gustavo Gomes | 饰 Arguing Man
      凯特·汉福德 / Kate Handford | 饰 Kitty
      欧文·古德 / Owen Good | 饰 Gerald
      兹恩·约书亚·泊松 / Zen Joshua Poisson | 饰 Lisbon Crying Baby
      薇薇安·索恩 / Vivienne Soan  | 饰 Duchess
      杰尔斯金·芬德里克斯 / Jerskin Fendrix
      韦恩·布雷特 / Wayne Brett | 饰 Priest
      凯奇凯梅西·阿提拉 / Kecskeméthy Attila | 饰 Burly Guy
      达米安·勃纳尔 / Damien Bonnard | 饰 Father
      杰瑞米·惠勒 / Jeremy Wheeler | 饰 Ship Officer
      罗德里克·希尔 / Roderick Hill | 饰 Man in Park
      安德鲁·赫夫勒 / Andrew Hefler | 饰 Boring Guy
      欧格斯·斯特凡纳科斯 / Yorgos Stefanakos | 饰 Georges
      加博·帕泰 / Gábor Patay | 饰 Hooks for Hands Guy
       洛朗·博雷尔 Laurent Borel | 饰 Crab Man
      多丽娜·科瓦奇 / Dorina Kovacs | 饰 Swiney's Grandchild
      鲍里斯·吉洛 / Boris Gillot | 饰 Mersault
      迈尔斯·约维安 / Miles Jovian | 饰 Gangplank Steward 2
      帕特里克·代·瓦莱特 / Patrick de Valette | 饰 Chapelle
      亚诺什·格莱布 / János Geréb | 饰 Dog Owner
      马苏德·达希尔 / Mascuud Dahir | 饰 Gangplank Steward 1
      塔马斯·萨博·西珀斯 / Tamás Szabó Sipos | 饰 Lisbon Dancing Man
      多诺万·福西尔 / Donovan Fouassier | 饰 Son 2
      诺亚·布雷顿 / Noah Breton | 饰 Son 1
      亚历山德拉·托特 / Alexandra Tóth | 饰 Upper Class Woman
      萨姆·J·夏沃 / Sam J. Schiavo | 饰 Fighting Fisherman 2
      瑟林纳·施莱谢尔 / Celina Schleicher | 饰 Swiney Woman #1
      希沙姆·奥马尔 / Hisham Omer | 饰 Alexandria Hotel Waiter
      格戈·博尔巴斯 / Gergo Borbas | 饰 Tittering student #2
      戴维·布罗姆利 / David Bromley | 饰 Alfie's Doctor
      约翰·洛克 / John Locke | 饰 David, Alfie's Burlter
      布鲁纳·阿斯多里安 / Bruna Asdorian | 饰 Lisbon Dancing Woman
◎编  剧 托尼·麦克纳马拉 / Tony McNamara
      阿拉斯代尔·格雷 / Alasdair Gray
◎制  片  人 欧格斯·兰斯莫斯 / Yorgos Lanthimos
      艾玛·斯通 / Emma Stone
      安德鲁·洛 / Andrew Lowe
      艾德·格尼 / Ed Guiney
◎音  乐 杰尔斯金·芬德里克斯 / Jerskin Fendrix
◎摄  影 罗比·瑞恩 / Robbie Ryan
◎美  术 肖娜·希斯 / Shona Heath
      詹姆斯·普莱斯 / James Price
      朱扎·米哈莱克 / Zsuzsa Mihalek
◎服  装 霍莉·沃丁顿 / Holly Waddington
◎音  效 强尼·伯恩 / Johnnie Burn
◎其  它 瓦西里斯·马尔马塔基斯 / Vasilis Marmatakis
◎简  介 
  影片基于苏格兰作家阿拉斯代尔·格雷所著同名小说,融合现实主义、奇异、科幻元素,将弗兰肯斯坦的故事重塑,设定在维多利亚时代晚期,回避丈夫凌虐却不幸身亡的女子贝拉(艾玛·斯通 Emma Stone 饰),在被科学家成功新生后,心智逗留在孩童阶段,却也对未知天下布满渴望;她与汗漫律师私奔踏上挖掘自我的冒险,试图摆脱时代对女性偏见,追求同等与性束缚。
◎获奖情况 
  第96届奥斯卡金像奖 (2024)
  最好影片(提名) 艾德·格尼,安德鲁·洛,艾玛·斯通,欧格斯·兰斯莫斯
  最好导演(提名) 欧格斯·兰斯莫斯
  最好女配角 艾玛·斯通
  最好男配角(提名) 马克·鲁弗洛
  最好改编剧本(提名) 托尼·麦克纳马拉
  最好摄影(提名) 罗比·瑞恩
  最好剪辑(提名) 欧格斯·马夫罗萨里迪斯
  最好艺术指导 肖娜·希斯,詹姆斯·普莱斯,朱扎·米哈莱克
  最好打扮设想 霍莉·沃丁顿
  最好化装与发型设想 乔希·韦斯顿,马克·凯奥耶,纳迪娅·斯欧美
  最好原创配乐(提名) 杰尔斯金·芬德里克斯
  第80届威尼斯电影节 (2023)
  主比赛单元 金狮奖 欧格斯·兰斯莫斯
  第81届金球奖 (2024)
  电影类 最好音乐/笑剧片
  电影类 最好导演(提名) 欧格斯·兰斯莫斯
  电影类 音乐/笑剧片最好女配角 艾玛·斯通
  电影类 最好男配角(提名) 马克·鲁弗洛,威廉·达福
  电影类 最好编剧(提名) 托尼·麦克纳马拉
  电影类 最好原创配乐(提名) 杰尔斯金·芬德里克斯
  第77届英国电影学院奖 (2024)
  电影奖 最好影片(提名) 艾德·格尼,安德鲁·洛,艾玛·斯通,欧格斯·兰斯莫斯
  电影奖 最好英国影片(提名) 托尼·麦克纳马拉,艾德·格尼,安德鲁·洛,艾玛·斯通,欧格斯·兰斯莫斯
  电影奖 最好女配角 艾玛·斯通
  电影奖 最好改编剧本(提名) 托尼·麦克纳马拉
  电影奖 最好摄影(提名) 罗比·瑞恩
  电影奖 最好剪辑(提名) 欧格斯·马夫罗萨里迪斯
  电影奖 最好化装/发型 马克·凯奥耶,纳迪娅·斯欧美
  电影奖 最好打扮设想 霍莉·沃丁顿
  电影奖 最好艺术指导 肖娜·希斯,詹姆斯·普莱斯,朱扎·米哈莱克
  电影奖 最好特别视觉结果
  电影奖 最好原创配乐(提名) 杰尔斯金·芬德里克斯
  第76届美国导演工会奖 (2024)
  最好电影导演(提名) 欧格斯·兰斯莫斯
  第30届美国演员工会奖 (2024)
  电影奖 最好女配角(提名) 艾玛·斯通
  电影奖 最好男配角(提名) 威廉·达福
  第35届美国制片野生会奖 (2024)
  最好电影制片人奖(提名)
  第95届美国国家批评协会奖 (2023)
  最好男配角 马克·鲁弗洛
  最好改编剧本 托尼·麦克纳马拉
  第29届美国批评家挑选电影奖 (2024)
  最好影片(提名)
  最好导演(提名) 欧格斯·兰斯莫斯
  最好女配角 艾玛·斯通
  最好男配角(提名) 马克·鲁弗洛
  最好笑剧片(提名)
  最好改编剧本(提名) 托尼·麦克纳马拉
  最好摄影(提名) 罗比·瑞恩
  最好剪辑(提名) 欧格斯·马夫罗萨里迪斯
  最好配乐(提名) 杰尔斯金·芬德里克斯
  最好美术指导(提名) 肖娜·希斯,詹姆斯·普莱斯,朱扎·米哈莱克
  最好打扮设想(提名) 霍莉·沃丁顿
  最好发型化装(提名)
  最好视觉结果(提名)
  第33届哥谭自力电影奖 (2023)
  最好国际影片(提名) 艾德·格尼,安德鲁·洛,艾玛·斯通,欧格斯·兰斯莫斯
  第57届美国国家影评人协会奖 (2023)
  最好女配角(提名) 艾玛·斯通
  1. General
  2. Unique ID: 201754100801522948233354020063315075765 (0x97C86D2972090B4B09E1974029C5A2B5)
  3. Complete name: Poor.Things.2023.Eng.Fre.Ger.Ita.Spa.1080p.BluRay.Remux.AVC.DTS-HD.MA-SGF.mkv
  4. Format: Matroska
  5. Format version: Version 4
  6. File size: 39.0 GiB
  7. Duration: 2 h 21 min
  8. Overall bit rate mode: Variable
  9. Overall bit rate: 39.4 Mb/s
  10. Frame rate: 23.976 FPS
  11. Encoded date: 2024-03-07 16:46:18 UTC
  12. Writing application: mkvmerge v82.0 ('I'm The President') 64-bit
  13. Writing library: libebml v1.4.5 + libmatroska v1.7.1
  14. Video
  15. ID: 1
  16. Format: AVC
  17. Format/Info: Advanced Video Codec
  18. Format profile: High@L4.1
  19. Format settings: CABAC / 4 Ref Frames
  20. Format settings, CABAC: Yes
  21. Format settings, Reference frames: 4 frames
  22. Format settings, Slice count: 4 slices per frame
  23. Codec ID: V_MPEG4/ISO/AVC
  24. Duration: 2 h 21 min
  25. Bit rate mode: Variable
  26. Bit rate: 31.4 Mb/s
  27. Maximum bit rate: 35.6 Mb/s
  28. Width: 1 920 pixels
  29. Height: 1 080 pixels
  30. Display aspect ratio: 16:9
  31. Frame rate mode: Constant
  32. Frame rate: 23.976 (24000/1001) FPS
  33. Color space: YUV
  34. Chroma subsampling: 4:2:0
  35. Bit depth: 8 bits
  36. Scan type: Progressive
  37. Bits/(Pixel*Frame): 0.631
  38. Time code of first frame: 00:59:59:00
  39. Stream size: 31.1 GiB (80%)
  40. Default: Yes
  41. Forced: No
  42. Audio 1
  43. ID: 2
  44. Format: DTS XLL
  45. Format/Info: Digital Theater Systems
  46. Commercial name: DTS-HD Master Audio
  47. Codec ID: A_DTS
  48. Duration: 2 h 21 min
  49. Bit rate mode: Variable
  50. Bit rate: 3 452 kb/s
  51. Channel(s): 6 channels
  52. Channel layout: C L R Ls Rs LFE
  53. Sampling rate: 48.0 kHz
  54. Frame rate: 93.750 FPS (512 SPF)
  55. Bit depth: 24 bits
  56. Compression mode: Lossless
  57. Stream size: 3.42 GiB (9%)
  58. Title: English [DTS-HD MA 5.1]
  59. Language: English
  60. Default: Yes
  61. Forced: No
  62. Audio 2
  63. ID: 3
  64. Format: AC-3
  65. Format/Info: Audio Coding 3
  66. Commercial name: Dolby Digital
  67. Codec ID: A_AC3
  68. Duration: 2 h 21 min
  69. Bit rate mode: Constant
  70. Bit rate: 320 kb/s
  71. Channel(s): 2 channels
  72. Channel layout: L R
  73. Sampling rate: 48.0 kHz
  74. Frame rate: 31.250 FPS (1536 SPF)
  75. Compression mode: Lossy
  76. Stream size: 324 MiB (1%)
  77. Title: English [Audio Description]
  78. Language: English
  79. Service kind: Complete Main
  80. Default: No
  81. Forced: No
  82. Audio 3
  83. ID: 4
  84. Format: AC-3
  85. Format/Info: Audio Coding 3
  86. Commercial name: Dolby Digital
  87. Codec ID: A_AC3
  88. Duration: 2 h 21 min
  89. Bit rate mode: Constant
  90. Bit rate: 640 kb/s
  91. Channel(s): 6 channels
  92. Channel layout: L R C LFE Ls Rs
  93. Sampling rate: 48.0 kHz
  94. Frame rate: 31.250 FPS (1536 SPF)
  95. Compression mode: Lossy
  96. Stream size: 648 MiB (2%)
  97. Title: French (France) [Dolby Digital 5.1]
  98. Language: French (FR)
  99. Service kind: Complete Main
  100. Default: No
  101. Forced: No
  102. Audio 4
  103. ID: 5
  104. Format: AC-3
  105. Format/Info: Audio Coding 3
  106. Commercial name: Dolby Digital
  107. Codec ID: A_AC3
  108. Duration: 2 h 21 min
  109. Bit rate mode: Constant
  110. Bit rate: 640 kb/s
  111. Channel(s): 6 channels
  112. Channel layout: L R C LFE Ls Rs
  113. Sampling rate: 48.0 kHz
  114. Frame rate: 31.250 FPS (1536 SPF)
  115. Compression mode: Lossy
  116. Stream size: 648 MiB (2%)
  117. Title: German [Dolby Digital 5.1]
  118. Language: German
  119. Service kind: Complete Main
  120. Default: No
  121. Forced: No
  122. Audio 5
  123. ID: 6
  124. Format: AC-3
  125. Format/Info: Audio Coding 3
  126. Commercial name: Dolby Digital
  127. Codec ID: A_AC3
  128. Duration: 2 h 21 min
  129. Bit rate mode: Constant
  130. Bit rate: 640 kb/s
  131. Channel(s): 6 channels
  132. Channel layout: L R C LFE Ls Rs
  133. Sampling rate: 48.0 kHz
  134. Frame rate: 31.250 FPS (1536 SPF)
  135. Compression mode: Lossy
  136. Stream size: 648 MiB (2%)
  137. Title: Italian [Dolby Digital 5.1]
  138. Language: Italian
  139. Service kind: Complete Main
  140. Default: No
  141. Forced: No
  142. Audio 6
  143. ID: 7
  144. Format: DTS
  145. Format/Info: Digital Theater Systems
  146. Codec ID: A_DTS
  147. Duration: 2 h 21 min
  148. Bit rate mode: Constant
  149. Bit rate: 1 509 kb/s
  150. Channel(s): 6 channels
  151. Channel layout: C L R Ls Rs LFE
  152. Sampling rate: 48.0 kHz
  153. Frame rate: 93.750 FPS (512 SPF)
  154. Bit depth: 24 bits
  155. Compression mode: Lossy
  156. Stream size: 1.49 GiB (4%)
  157. Title: Spanish (Spain) [DTS 5.1]
  158. Language: Spanish (ES)
  159. Default: No
  160. Forced: No
  161. Audio 7
  162. ID: 8
  163. Format: AC-3
  164. Format/Info: Audio Coding 3
  165. Commercial name: Dolby Digital
  166. Codec ID: A_AC3
  167. Duration: 2 h 21 min
  168. Bit rate mode: Constant
  169. Bit rate: 640 kb/s
  170. Channel(s): 6 channels
  171. Channel layout: L R C LFE Ls Rs
  172. Sampling rate: 48.0 kHz
  173. Frame rate: 31.250 FPS (1536 SPF)
  174. Compression mode: Lossy
  175. Stream size: 648 MiB (2%)
  176. Title: Spanish (Latin America) [Dolby Digital 5.1]
  177. Language: Spanish (Latin America)
  178. Service kind: Complete Main
  179. Default: No
  180. Forced: No
  181. Text 1
  182. ID: 9
  183. Format: PGS
  184. Muxing mode: zlib
  185. Codec ID: S_HDMV/PGS
  186. Codec ID/Info: Picture based subtitle format used on BDs/HD-DVDs
  187. Duration: 2 h 20 min
  188. Bit rate: 41.2 kb/s
  189. Frame rate: 0.516 FPS
  190. Count of elements: 4350
  191. Stream size: 41.4 MiB (0%)
  192. Title: English [SDH]
  193. Language: English
  194. Default: No
  195. Forced: No
  196. Text 2
  197. ID: 10
  198. Format: PGS
  199. Muxing mode: zlib
  200. Codec ID: S_HDMV/PGS
  201. Codec ID/Info: Picture based subtitle format used on BDs/HD-DVDs
  202. Duration: 2 h 19 min
  203. Bit rate: 30.3 kb/s
  204. Frame rate: 0.336 FPS
  205. Count of elements: 2814
  206. Stream size: 30.3 MiB (0%)
  207. Title: French (France) [Full]
  208. Language: French (FR)
  209. Default: No
  210. Forced: No
  211. Text 3
  212. ID: 11
  213. Format: PGS
  214. Muxing mode: zlib
  215. Codec ID: S_HDMV/PGS
  216. Codec ID/Info: Picture based subtitle format used on BDs/HD-DVDs
  217. Duration: 2 h 16 min
  218. Bit rate: 31.6 kb/s
  219. Frame rate: 0.392 FPS
  220. Count of elements: 3220
  221. Stream size: 30.9 MiB (0%)
  222. Title: German [Full]
  223. Language: German
  224. Default: No
  225. Forced: No
  226. Text 4
  227. ID: 12
  228. Format: PGS
  229. Muxing mode: zlib
  230. Codec ID: S_HDMV/PGS
  231. Codec ID/Info: Picture based subtitle format used on BDs/HD-DVDs
  232. Duration: 2 h 19 min
  233. Bit rate: 30.8 kb/s
  234. Frame rate: 0.392 FPS
  235. Count of elements: 3288
  236. Stream size: 30.8 MiB (0%)
  237. Title: Italian [Full]
  238. Language: Italian
  239. Default: No
  240. Forced: No
  241. Text 5
  242. ID: 13
  243. Format: PGS
  244. Muxing mode: zlib
  245. Codec ID: S_HDMV/PGS
  246. Codec ID/Info: Picture based subtitle format used on BDs/HD-DVDs
  247. Duration: 2 h 19 min
  248. Bit rate: 31.5 kb/s
  249. Frame rate: 0.388 FPS
  250. Count of elements: 3256
  251. Stream size: 31.4 MiB (0%)
  252. Title: Spanish (Spain) [Full]
  253. Language: Spanish (ES)
  254. Default: No
  255. Forced: No
  256. Text 6
  257. ID: 14
  258. Format: PGS
  259. Muxing mode: zlib
  260. Codec ID: S_HDMV/PGS
  261. Codec ID/Info: Picture based subtitle format used on BDs/HD-DVDs
  262. Duration: 2 h 19 min
  263. Bit rate: 31.6 kb/s
  264. Frame rate: 0.393 FPS
  265. Count of elements: 3296
  266. Stream size: 31.6 MiB (0%)
  267. Title: Spanish (Latin America) [Full]
  268. Language: Spanish (Latin America)
  269. Default: No
  270. Forced: No
  271. Text 7
  272. ID: 15
  273. Format: PGS
  274. Muxing mode: zlib
  275. Codec ID: S_HDMV/PGS
  276. Codec ID/Info: Picture based subtitle format used on BDs/HD-DVDs
  277. Duration: 2 h 16 min
  278. Bit rate: 32.2 kb/s
  279. Frame rate: 0.298 FPS
  280. Count of elements: 2448
  281. Stream size: 31.5 MiB (0%)
  282. Title: Danish [Full]
  283. Language: Danish
  284. Default: No
  285. Forced: No
  286. Text 8
  287. ID: 16
  288. Format: PGS
  289. Muxing mode: zlib
  290. Codec ID: S_HDMV/PGS
  291. Codec ID/Info: Picture based subtitle format used on BDs/HD-DVDs
  292. Duration: 2 h 16 min
  293. Bit rate: 30.9 kb/s
  294. Frame rate: 0.325 FPS
  295. Count of elements: 2674
  296. Stream size: 30.3 MiB (0%)
  297. Title: Dutch [Full]
  298. Language: Dutch
  299. Default: No
  300. Forced: No
  301. Text 9
  302. ID: 17
  303. Format: PGS
  304. Muxing mode: zlib
  305. Codec ID: S_HDMV/PGS
  306. Codec ID/Info: Picture based subtitle format used on BDs/HD-DVDs
  307. Duration: 2 h 16 min
  308. Bit rate: 34.6 kb/s
  309. Frame rate: 0.395 FPS
  310. Count of elements: 3250
  311. Stream size: 33.9 MiB (0%)
  312. Title: Finnish [Full]
  313. Language: Finnish
  314. Default: No
  315. Forced: No
  316. Text 10
  317. ID: 18
  318. Format: PGS
  319. Muxing mode: zlib
  320. Codec ID: S_HDMV/PGS
  321. Codec ID/Info: Picture based subtitle format used on BDs/HD-DVDs
  322. Duration: 2 h 16 min
  323. Bit rate: 23.9 kb/s
  324. Frame rate: 0.368 FPS
  325. Count of elements: 3022
  326. Stream size: 23.4 MiB (0%)
  327. Title: Japanese [Full]
  328. Language: Japanese
  329. Default: No
  330. Forced: No
  331. Text 11
  332. ID: 19
  333. Format: PGS
  334. Muxing mode: zlib
  335. Codec ID: S_HDMV/PGS
  336. Codec ID/Info: Picture based subtitle format used on BDs/HD-DVDs
  337. Duration: 2 h 16 min
  338. Bit rate: 30.8 kb/s
  339. Frame rate: 0.399 FPS
  340. Count of elements: 3278
  341. Stream size: 30.2 MiB (0%)
  342. Title: Norwegian [Full]
  343. Language: Norwegian
  344. Default: No
  345. Forced: No
  346. Text 12
  347. ID: 20
  348. Format: PGS
  349. Muxing mode: zlib
  350. Codec ID: S_HDMV/PGS
  351. Codec ID/Info: Picture based subtitle format used on BDs/HD-DVDs
  352. Duration: 2 h 16 min
  353. Bit rate: 29.7 kb/s
  354. Frame rate: 0.292 FPS
  355. Count of elements: 2400
  356. Stream size: 29.1 MiB (0%)
  357. Title: Swedish [Full]
  358. Language: Swedish
  359. Default: No
  360. Forced: No
  361. Menu
  362. 00:00:00.000: en:Chapter 01
  363. 00:04:45.952: en:Chapter 02
  364. 00:08:06.611: en:Chapter 03
  365. 00:11:07.166: en:Chapter 04
  366. 00:15:37.311: en:Chapter 05
  367. 00:20:03.076: en:Chapter 06
  368. 00:25:37.786: en:Chapter 07
  369. 00:31:30.680: en:Chapter 08
  370. 00:36:49.415: en:Chapter 09
  371. 00:41:02.418: en:Chapter 10
  372. 00:48:25.068: en:Chapter 11
  373. 00:51:24.790: en:Chapter 12
  374. 00:59:02.997: en:Chapter 13
  375. 01:04:47.383: en:Chapter 14
  376. 01:09:34.503: en:Chapter 15
  377. 01:15:47.209: en:Chapter 16
  378. 01:22:31.154: en:Chapter 17
  379. 01:24:10.295: en:Chapter 18
  380. 01:30:57.285: en:Chapter 19
  381. 01:37:16.455: en:Chapter 20
  382. 01:43:33.332: en:Chapter 21
  383. 01:45:19.146: en:Chapter 22
  384. 01:48:23.538: en:Chapter 23
  385. 01:51:11.414: en:Chapter 24
  386. 01:58:15.296: en:Chapter 25
  387. 02:11:38.557: en:Chapter 26
  388. 02:15:59.151: en:Chapter 27
复制代码










回复

使用道具 举报

懒得打字嘛,点击右侧快捷回复 【右侧内容,后台自定义】
您需要登录后才可以回帖 登录 | 立即加入

本版积分规则

Archiver| |网站地图

Copyright © 2024 Comsenz Inc. Powered by 蓝光电影网

本站内容由用户自主分享和转载自互联网,转载目的在于传递更多信息,并不代表本网赞同其观点和对其真实性负责。

如有侵权、违反国家法律政策行为,请联系我们,我们会第一时间及时清除和处理!

举报反馈邮箱:4k1080.com@gmail.com

快速回复 返回顶部 返回列表