找回密码

查看: 625|回复: 1

[剧情] 草叶.Leaves.of.Grass.2009.1080p.BluRay.REMUX.VC1.DTS-HD.MA.5.1-Asmo 13.91GB

[复制链接]
蓝光币
2048
发表于 2024-3-15 15:16:33 | 显示全部楼层 |阅读模式


◎译  名 草叶 / 双子诡计(台) / 草叶集 / 大麻
◎片  名 Leaves of Grass
◎年  代 2009
◎产  地 美国
◎类  别 剧情 / 笑剧 / 惊悚 / 犯罪
◎语  言 英语
◎上映日期 2009-09-14
◎IMDb评星  ★★★★★★✦☆☆☆
◎IMDb评分  6.4/10 from 27,821 users
◎IMDb链接  https://www.imdb.com/title/tt1151359/
◎豆瓣评星 ★★★✦☆
◎豆瓣评分 7.4/10 from 15,230 users
◎豆瓣链接 https://movie.douban.com/subject/2372389/
◎片  长 105 分钟
◎导  演 蒂姆·布雷克·尼尔森 / Tim Blake Nelson
◎演  员 爱德华·诺顿 / Edward Norton
      苏珊·萨兰登 / Susan Sarandon
      梅兰妮·林斯基 / Melanie Lynskey
      泰·布利尔 / Ty Burrell
      凯丽·拉塞尔 / Keri Russell
      理查德·德莱福斯 / Richard Dreyfuss
      蒂姆·布雷克·尼尔森 / Tim Blake Nelson
      埃里克·凯利·麦克法兰 / Eric Kelly McFarland
      泰德·弗格森 / Ted Ferguson
       Halley Rachal
       Chuck Vail
       Christopher Dickerson
      普路特·泰勒·文斯 / Pruitt Taylor Vince | 饰 Big Joe Sharpe
       Scott Yarnell
       Clayton S. Taylor
       Matthew Ramsaur
       Kent Jude Bernard
       Michael C. 'Mike' Allen
      乔什·帕斯 / Josh Pais
      Steven E. Williams Steven E. Williams
      吉姆·亨利 / Jim Henry
      阿米莉亚·坎贝尔 / Amelia Campbell
      肯·奇斯曼 / Ken Cheeseman
      克里斯·弗雷霍夫 / Chris Freihofer
      Steve Earle Steve Earle
      李·维尔科夫 / Lee Wilkof
       Mysti Nash
      玛姬·丝弗 / Maggie Siff
◎编  剧 蒂姆·布雷克·尼尔森 / Tim Blake Nelson
◎制  片  人 斯图尔特·布拉姆博格 / Stuart Blumberg
      爱德华·诺顿 / Edward Norton
      蒂姆·布雷克·尼尔森 / Tim Blake Nelson
      艾威·勒纳 / Avi Lerner
      博兹·大卫逊 / Boaz Davidson
      比尔·米格里奥 / Bill Migliore
      John Langley John Langley
◎音  乐 杰夫·丹纳 / Jeff Danna
◎摄  影 罗伯托·谢弗 / Roberto Schaefer
◎选  角 艾薇·考夫曼 / Avy Kaufman
◎美  术 Rob Simons Rob Simons
      玛丽亚·奈 / Maria Nay
◎化  妆 Randy Westgate Randy Westgate
◎视觉殊效 Kiril Georgiev Kiril Georgiev
◎简  介 
  倍受门生爱戴,奇迹方兴未艾的古典哲学教授比尔·金凯德(爱德华·诺顿 Edward Norton 饰)听闻自己孪生兄弟布雷迪(爱德华·诺顿 饰)的死讯后慌忙赶回奥克拉荷马州的故乡,塔尔萨市的小迪克西镇。布雷迪的好友博尔格(提姆·布莱克·内尔森 Tim Blake Nelson 饰)负责接机,抵家后发现布雷迪并未中弩箭而亡。比尔虽然生气,但仍赞成翌日去养老院探望十几年都没碰头的母亲(苏珊·萨兰登 Susan Sarandon 饰)。布雷迪带比尔参观自己设想组装的第七代无土水栽优良大麻,并先容他熟悉了当地中学的英语教员珍妮特(凯丽·拉塞尔 Keri Russell 饰)。就在比尔筹算返回黉舍之际,他得知自己竟被卷入一路犹太毒枭(理查德·德莱福斯 Richard Dreyfuss 饰)谋杀案……
◎幕后揭秘
  纷歧样的南方
  很多美国电影都把南方描写成一个未野蛮的地域,他们傍边的很多人都在依靠贩毒为生,他们没有什么追求,过着“做一天僧人撞一天钟”的生活,街道的两侧处处是流浪汉、而且还时而不时地发生黑帮的火拼。
  可是对于从小就在南部的俄克拉荷马州长大的演员兼导演蒂姆·布雷克·尼尔森而言,这样简单粗鲁地塑造南方人的形象有失公允。他说:“是的,那些电影里单一地塑造南部人的形象简直让人不快。可以料想到,他们要末没有来过南方,要末就是对南方有些偏见。所以当我动手写这个剧本时,我就决议,一定要让影片中最聪明的人居住在南方大概是已经居住现在又回到南方。所以这部电影里最聪明的脚色就是布莱迪,虽然他做的是毒品买卖,但我还是把这个脚色给了他。实在全部故事的主线还是关于思疑和兄弟情谊的。作为一个说故事的人,必必要把这个故事说得让观众相信。有好多人问我,这对双胞胎能否是在一路长大的,很明显,他们没有在一路长大--这也就致使了后来他们悬殊的生活轨迹。实在,这样的故事并不罕有。像是米南德、普劳图斯和莎士比亚都写过这样的双胞胎故事:双胞胎中的一个是古典主义者,另一个是陌头混混。我这么编写剧本也是偷师来的,这个双胞胎的脚色几近就是普劳图斯的戏剧《孪生兄弟》(Menaechmi)的翻版。我感觉这部电影中最使人欣喜和爱好的部分应当就是双胞胎的关系,这里的故事既古典又现代。”
  非绿幕拍摄
  当爱德华·诺顿开办的Class 5 Films公布了《草叶》的拍摄计划后,外界对导演尼尔森有了一些质疑之声,由于他之前并没有太刺眼的作品。面临着这些质疑,尼尔森说:“实在这算不上什么质疑,影迷自然会很期待一部由诺顿出演的电影,而这部电影的导演却是一个他们不晓得的家伙,所以这样的疑问很一般也很该当。不外我感觉,既然诺顿都很相信我,那末我又有什么来由要由于影迷们的这些质疑而纠结呢?拍摄这部戏的最大的困难是指导诺顿表演,由于他在影片里饰演了一对双胞胎兄弟,所以很多他和自己的对手戏都需要他和自己完成。值得说的是我们没有益用绿幕,我们用的是行动控制系统。从技术上来说,我们碰到了很多的困难,可是诺顿的天赋和才华让这些技术上的困难何足道哉。我写了这样一个剧本,自然就希望能找到一个称职及格的配角。诺顿的简直确是这样一个演员,他的表演很是有压服力,也很是震动。我总是感觉这是一部诺顿的影片,而不是我的。”
  对于拍摄上的困难,诺顿说:“最大的困难来自我的表演,假如导演写一个兄弟的故事,找两个演员饰演他们就不会有这类困难了。可是他已经这么写了,我们也就这么拍。由于没有益用绿幕,所以在拍摄的时辰我得很是留意我站的位置,否则的话在前期分解上他们就会碰到极大的困难。那些饰演‘另一个我’的替人也要死力地模仿出我刚刚做出的行动,好让我表演。可以说这很难,可是这也很成心机。”
  双生诺顿
  实在,让诺顿饰演这类“双生”的脚色是再合适也不外的,由于他已经在三部电影里饰演过了品德割裂的脚色:《一级恐惧》、《搏击俱乐部》和《无敌浩克》。此次他在饰演了一个类似的脚色:双胞胎兄弟--一个是教授、一个是毒贩。
  面临着这样的脚色,经历丰富的诺顿说:“我一看到尼尔森的剧本就心悦诚服了,不但仅是这里面的故事让我欣喜,更是由于阿谁双胞胎的脚色让人印象深入。饰演这个脚色是对演员的极大的应战。固然,剧本里的故事并不新颖,只是可贵一见,我感觉我应当捉住这样的机遇。那时尼尔森刚刚写出了剧本,他对整部影片没有什么计划,所以我就加入了进来。我很垂青看剧本时辰的感受能不能在影片中重现,荣幸的是尼尔森很是长于‘重现’这类感受,由因而他缔造了剧本和这部电影。同时他也很大白这么去拍摄这样一部电影。在片场的时辰,我总是感觉我现在拍的不是《草叶》,而是芬奇的《搏击俱乐部》,又像是我和斯派克·李合作的《25小时》。表演双胞胎的最大的应战就是把握情感,在零丁的场景中这点并不难做,可是在兄弟俩同时出现的场景中,把握情感就显得尤其困难了。由于我要同时展现出两种截然分歧的心理状态,特别是一些比力剧烈的心里戏,我感觉这是一个庞大的应战。不外,幸亏尼尔森是一个有经历、有才华的导演,他很是大白若何把自己的气概放在影片中,而且他还大白若何让演员更有自傲。那时我们在拍《无敌浩克》的时辰,就期待着能有一次合作,我希望他能导演一部我主演的电影。偶然辰我感觉,这样的剧本是可遇不成求的,假如还有类似的故事和脚色,我一定不会放弃参演的机遇。”
  1. Leaves.of.Grass.2009.1080p.BluRay.REMUX.VC1.DTS-HD.MA.5.1-Asmo
  2. Stream #0:0(eng): Video: vc1 (Advanced) (WVC1 / 0x31435657), yuv420p(progressive), 1920x1080 [SAR 1:1 DAR 16:9], 23.98 fps, 23.98 tbr, 1k tbn, 47.95 tbc (default)
  3. Stream #0:1(eng): Audio: dts (DTS-HD MA), 48000 Hz, 5.1(side), s32p (24 bit) (default)
  4. Stream #0:2(rus): Audio: ac3, 48000 Hz, 5.1(side), fltp, 448 kb/s
  5. Stream #0:3(ger): Subtitle: hdmv_pgs_subtitle
  6. Stream #0:4(eng): Subtitle: hdmv_pgs_subtitle
  7. Stream #0:5(spa): Subtitle: hdmv_pgs_subtitle
  8. Stream #0:6(fre): Subtitle: hdmv_pgs_subtitle
  9. Stream #0:7(pol): Subtitle: hdmv_pgs_subtitle
  10. Stream #0:8(por): Subtitle: hdmv_pgs_subtitle
  11. Stream #0:9(rus): Subtitle: hdmv_pgs_subtitle
复制代码









回复

使用道具 举报

蓝光币
755
发表于 2024-3-16 16:52:19 | 显示全部楼层

这个帖子不回对不起自己!我想我是一天也不能离开蓝光电影网。
回复

使用道具 举报

懒得打字嘛,点击右侧快捷回复 【右侧内容,后台自定义】
您需要登录后才可以回帖 登录 | 立即加入

本版积分规则

Archiver| |网站地图

Copyright © 2024 Comsenz Inc. Powered by 蓝光电影网

本站内容由用户自主分享和转载自互联网,转载目的在于传递更多信息,并不代表本网赞同其观点和对其真实性负责。

如有侵权、违反国家法律政策行为,请联系我们,我们会第一时间及时清除和处理!

举报反馈邮箱:4k1080.com@gmail.com

快速回复 返回顶部 返回列表