找回密码

查看: 715|回复: 1

[动作] 少女斗恶龙/未婚女子/落难女子 [中字].Damsel.2024.1080p.NF.WEB-DL.DDP5.1.Atmos.H.264-TAG 5.68GB

[复制链接]
蓝光币
2048
发表于 2024-3-21 17:18:30 | 显示全部楼层 |阅读模式
少女斗恶龙/未婚女子/流浪女子 [中字].Damsel.2024.1080p.NF.WEB-DL.DDP5.1.Atmos.H.264-TAG 5.68GB-1.jpg
◎译   名  少女斗恶龙 / 未婚女子 / 流浪女子
◎片   名  Damsel
◎年   代  2024
◎产   地  美国
◎类   别  行动 / 奇异 / 冒险
◎语   言  英语
◎上映 日期  2024-03-08(美国收集)
◎IMDb评分  N/A/10 from N/A users
◎IMDb链接  https://www.imdb.com/title/tt13452446/
◎豆瓣 评分  0/10 from 0 users
◎豆瓣 链接  https://movie.douban.com/subject/35251159/
◎片   长  85分钟
◎导   演  胡安·卡洛斯·弗雷斯纳迪罗 Juan Carlos Fresnadillo
◎编   剧  丹·马泽 Dan Mazeau
◎主   演  米莉·波比·布朗 Millie Bobby Brown
          索瑞·安达斯鲁 Shohreh Aghdashloo
          罗宾·怀特 Robin Wright
          安吉拉·贝塞特 Angela Bassett
          尼克·罗宾森 Nick Robinson
          雷·温斯顿 Ray Winstone
          Brooke Carter Brooke Carter
           Ulli Ackermann
           Mens-Sana Tamakloe
           Manon Stieglitz
          埃尔马诺·桑丘 Elmano Sancho
           Rui M Tomas
           Rina Martin
           Ricky Guillart
           Nicole Joseph
           Ricarda Clay
           Sonya Nisa
           Esther Odumade
           Brogan Mcfarlane
           Sam Sharma

◎简  介

  本片有王子有恶龙,但绝非童话。
  公主Elodie(米莉·波比·布朗 饰)答应嫁给英俊的王子Henry,却骇然发现王室筹算将她献祭给一头巨龙,以了偿家属代代相传的陈腐债权。惨被当做祭品的她被无情地扔进洞窟,面临张牙舞爪的喷火恶龙,她必须靠着勇气与聪明逃诞生天。

  1. General
  2. Unique ID : 31326729391109477587835836993963272309 (0x17914F01AE6CDF93A48204E212BBA875)
  3. Complete name : Damsel.2024.1080p.NF.WEB-DL.DDP5.1.Atmos.H.264-TAG.mkv
  4. Format : Matroska
  5. Format version : Version 4
  6. File size : 5.68 GiB
  7. Duration : 1 h 49 min
  8. Overall bit rate mode : Variable
  9. Overall bit rate : 7 425 kb/s
  10. Frame rate : 24.000 FPS
  11. Writing application : mkvmerge v79.0 ('Funeral Pyres') 64-bit
  12. Writing library : libebml v1.4.4 + libmatroska v1.7.1

  13. Video
  14. ID : 1
  15. Format : AVC
  16. Format/Info : Advanced Video Codec
  17. Format profile : High@L4
  18. Format settings : CABAC / 4 Ref Frames
  19. Format settings, CABAC : Yes
  20. Format settings, Reference frames : 4 frames
  21. Codec ID : V_MPEG4/ISO/AVC
  22. Duration : 1 h 49 min
  23. Bit rate mode : Variable
  24. Bit rate : 6 653 kb/s
  25. Maximum bit rate : 20.0 Mb/s
  26. Width : 1 920 pixels
  27. Height : 1 080 pixels
  28. Display aspect ratio : 16:9
  29. Frame rate mode : Constant
  30. Frame rate : 24.000 FPS
  31. Color space : YUV
  32. Chroma subsampling : 4:2:0
  33. Bit depth : 8 bits
  34. Scan type : Progressive
  35. Bits/(Pixel*Frame) : 0.134
  36. Stream size : 5.09 GiB (90%)
  37. Writing library : x264 core 148 r2727 7d026e8
  38. Encoding settings : cabac=1 / ref=4 / deblock=1:0:0 / analyse=0x3:0x111 / me=umh / subme=10 / psy=1 / psy_rd=1.00:0.00 / mixed_ref=1 / me_range=120 / chroma_me=1 / trellis=2 / 8x8dct=1 / cqm=0 / deadzone=21,11 / fast_pskip=1 / chroma_qp_offset=-2 / threads=6 / lookahead_threads=1 / sliced_threads=0 / nr=0 / decimate=1 / interlaced=0 / bluray_compat=0 / stitchable=1 / constrained_intra=0 / bframes=16 / b_pyramid=2 / b_adapt=2 / b_bias=0 / direct=3 / weightb=1 / open_gop=0 / weightp=2 / keyint=240 / keyint_min=121 / scenecut=0 / intra_refresh=0 / rc_lookahead=240 / rc=crf / mbtree=1 / crf=17.0 / qcomp=0.50 / qpmin=6 / qpmax=51 / qpstep=4 / vbv_maxrate=20000 / vbv_bufsize=25000 / crf_max=0.0 / nal_hrd=vbr / filler=0 / ip_ratio=1.40 / aq=1:0.80
  39. Language : English
  40. Default : Yes
  41. Forced : No

  42. Audio
  43. ID : 2
  44. Format : E-AC-3 JOC
  45. Format/Info : Enhanced AC-3 with Joint Object Coding
  46. Commercial name : Dolby Digital Plus with Dolby Atmos
  47. Codec ID : A_EAC3
  48. Duration : 1 h 49 min
  49. Bit rate mode : Constant
  50. Bit rate : 768 kb/s
  51. Channel(s) : 6 channels
  52. Channel layout : L R C LFE Ls Rs
  53. Sampling rate : 48.0 kHz
  54. Frame rate : 31.250 FPS (1536 SPF)
  55. Compression mode : Lossy
  56. Stream size : 602 MiB (10%)
  57. Language : English
  58. Service kind : Complete Main
  59. Default : Yes
  60. Forced : No
  61. Complexity index : 16
  62. Number of dynamic objects : 15
  63. Bed channel count : 1 channel
  64. Bed channel configuration : LFE

  65. Text #1
  66. ID : 3
  67. Format : UTF-8
  68. Codec ID : S_TEXT/UTF8
  69. Codec ID/Info : UTF-8 Plain Text
  70. Duration : 1 h 43 min
  71. Bit rate : 23 b/s
  72. Frame rate : 0.113 FPS
  73. Count of elements : 698
  74. Stream size : 17.5 KiB (0%)
  75. Language : English
  76. Default : No
  77. Forced : No

  78. Text #2
  79. ID : 4
  80. Format : UTF-8
  81. Codec ID : S_TEXT/UTF8
  82. Codec ID/Info : UTF-8 Plain Text
  83. Duration : 1 h 43 min
  84. Bit rate : 28 b/s
  85. Frame rate : 0.145 FPS
  86. Count of elements : 898
  87. Stream size : 21.8 KiB (0%)
  88. Title : SDH
  89. Language : English
  90. Default : No
  91. Forced : No

  92. Text #3
  93. ID : 5
  94. Format : UTF-8
  95. Codec ID : S_TEXT/UTF8
  96. Codec ID/Info : UTF-8 Plain Text
  97. Duration : 1 h 46 min
  98. Bit rate : 37 b/s
  99. Frame rate : 0.107 FPS
  100. Count of elements : 686
  101. Stream size : 29.3 KiB (0%)
  102. Language : Arabic
  103. Default : No
  104. Forced : No

  105. Text #4
  106. ID : 6
  107. Format : UTF-8
  108. Codec ID : S_TEXT/UTF8
  109. Codec ID/Info : UTF-8 Plain Text
  110. Duration : 1 h 46 min
  111. Bit rate : 20 b/s
  112. Frame rate : 0.106 FPS
  113. Count of elements : 677
  114. Stream size : 16.2 KiB (0%)
  115. Language : Catalan
  116. Default : No
  117. Forced : No

  118. Text #5
  119. ID : 7
  120. Format : UTF-8
  121. Codec ID : S_TEXT/UTF8
  122. Codec ID/Info : UTF-8 Plain Text
  123. Duration : 1 h 46 min
  124. Bit rate : 19 b/s
  125. Frame rate : 0.106 FPS
  126. Count of elements : 680
  127. Stream size : 15.4 KiB (0%)
  128. Language : Czech
  129. Default : No
  130. Forced : No

  131. Text #6
  132. ID : 8
  133. Format : UTF-8
  134. Codec ID : S_TEXT/UTF8
  135. Codec ID/Info : UTF-8 Plain Text
  136. Duration : 1 h 46 min
  137. Bit rate : 19 b/s
  138. Frame rate : 0.106 FPS
  139. Count of elements : 681
  140. Stream size : 15.6 KiB (0%)
  141. Language : Danish
  142. Default : No
  143. Forced : No

  144. Text #7
  145. ID : 9
  146. Format : UTF-8
  147. Codec ID : S_TEXT/UTF8
  148. Codec ID/Info : UTF-8 Plain Text
  149. Duration : 1 h 46 min
  150. Bit rate : 20 b/s
  151. Frame rate : 0.105 FPS
  152. Count of elements : 672
  153. Stream size : 16.0 KiB (0%)
  154. Language : German
  155. Default : No
  156. Forced : No

  157. Text #8
  158. ID : 10
  159. Format : UTF-8
  160. Codec ID : S_TEXT/UTF8
  161. Codec ID/Info : UTF-8 Plain Text
  162. Duration : 1 h 46 min
  163. Bit rate : 37 b/s
  164. Frame rate : 0.106 FPS
  165. Count of elements : 683
  166. Stream size : 29.4 KiB (0%)
  167. Language : Greek
  168. Default : No
  169. Forced : No

  170. Text #9
  171. ID : 11
  172. Format : UTF-8
  173. Codec ID : S_TEXT/UTF8
  174. Codec ID/Info : UTF-8 Plain Text
  175. Duration : 1 h 46 min
  176. Bit rate : 20 b/s
  177. Frame rate : 0.106 FPS
  178. Count of elements : 680
  179. Stream size : 16.4 KiB (0%)
  180. Title : Latin American
  181. Language : Spanish (Latin America)
  182. Default : No
  183. Forced : No

  184. Text #10
  185. ID : 12
  186. Format : UTF-8
  187. Codec ID : S_TEXT/UTF8
  188. Codec ID/Info : UTF-8 Plain Text
  189. Duration : 1 h 46 min
  190. Bit rate : 20 b/s
  191. Frame rate : 0.105 FPS
  192. Count of elements : 674
  193. Stream size : 16.2 KiB (0%)
  194. Language : Spanish (ES)
  195. Default : No
  196. Forced : No

  197. Text #11
  198. ID : 13
  199. Format : UTF-8
  200. Codec ID : S_TEXT/UTF8
  201. Codec ID/Info : UTF-8 Plain Text
  202. Duration : 1 h 46 min
  203. Bit rate : 20 b/s
  204. Frame rate : 0.105 FPS
  205. Count of elements : 673
  206. Stream size : 15.9 KiB (0%)
  207. Language : Basque
  208. Default : No
  209. Forced : No

  210. Text #12
  211. ID : 14
  212. Format : UTF-8
  213. Codec ID : S_TEXT/UTF8
  214. Codec ID/Info : UTF-8 Plain Text
  215. Duration : 1 h 46 min
  216. Bit rate : 20 b/s
  217. Frame rate : 0.105 FPS
  218. Count of elements : 676
  219. Stream size : 15.8 KiB (0%)
  220. Language : Finnish
  221. Default : No
  222. Forced : No

  223. Text #13
  224. ID : 15
  225. Format : UTF-8
  226. Codec ID : S_TEXT/UTF8
  227. Codec ID/Info : UTF-8 Plain Text
  228. Duration : 1 h 46 min
  229. Bit rate : 20 b/s
  230. Frame rate : 0.106 FPS
  231. Count of elements : 681
  232. Stream size : 16.3 KiB (0%)
  233. Language : Filipino
  234. Default : No
  235. Forced : No

  236. Text #14
  237. ID : 16
  238. Format : UTF-8
  239. Codec ID : S_TEXT/UTF8
  240. Codec ID/Info : UTF-8 Plain Text
  241. Duration : 1 h 46 min
  242. Bit rate : 20 b/s
  243. Frame rate : 0.099 FPS
  244. Count of elements : 636
  245. Stream size : 16.2 KiB (0%)
  246. Language : French
  247. Default : No
  248. Forced : No

  249. Text #15
  250. ID : 17
  251. Format : UTF-8
  252. Codec ID : S_TEXT/UTF8
  253. Codec ID/Info : UTF-8 Plain Text
  254. Duration : 1 h 46 min
  255. Bit rate : 20 b/s
  256. Frame rate : 0.106 FPS
  257. Count of elements : 683
  258. Stream size : 16.0 KiB (0%)
  259. Language : Galician
  260. Default : No
  261. Forced : No

  262. Text #16
  263. ID : 18
  264. Format : UTF-8
  265. Codec ID : S_TEXT/UTF8
  266. Codec ID/Info : UTF-8 Plain Text
  267. Duration : 1 h 46 min
  268. Bit rate : 34 b/s
  269. Frame rate : 0.107 FPS
  270. Count of elements : 686
  271. Stream size : 26.7 KiB (0%)
  272. Language : Hebrew
  273. Default : No
  274. Forced : No

  275. Text #17
  276. ID : 19
  277. Format : UTF-8
  278. Codec ID : S_TEXT/UTF8
  279. Codec ID/Info : UTF-8 Plain Text
  280. Duration : 1 h 46 min
  281. Bit rate : 19 b/s
  282. Frame rate : 0.106 FPS
  283. Count of elements : 679
  284. Stream size : 15.1 KiB (0%)
  285. Language : Croatian
  286. Default : No
  287. Forced : No

  288. Text #18
  289. ID : 20
  290. Format : UTF-8
  291. Codec ID : S_TEXT/UTF8
  292. Codec ID/Info : UTF-8 Plain Text
  293. Duration : 1 h 46 min
  294. Bit rate : 20 b/s
  295. Frame rate : 0.106 FPS
  296. Count of elements : 678
  297. Stream size : 15.8 KiB (0%)
  298. Language : Hungarian
  299. Default : No
  300. Forced : No

  301. Text #19
  302. ID : 21
  303. Format : UTF-8
  304. Codec ID : S_TEXT/UTF8
  305. Codec ID/Info : UTF-8 Plain Text
  306. Duration : 1 h 46 min
  307. Bit rate : 20 b/s
  308. Frame rate : 0.106 FPS
  309. Count of elements : 681
  310. Stream size : 16.2 KiB (0%)
  311. Language : Indonesian
  312. Default : No
  313. Forced : No

  314. Text #20
  315. ID : 22
  316. Format : UTF-8
  317. Codec ID : S_TEXT/UTF8
  318. Codec ID/Info : UTF-8 Plain Text
  319. Duration : 1 h 46 min
  320. Bit rate : 21 b/s
  321. Frame rate : 0.106 FPS
  322. Count of elements : 681
  323. Stream size : 16.8 KiB (0%)
  324. Language : Italian
  325. Default : No
  326. Forced : No

  327. Text #21
  328. ID : 23
  329. Format : UTF-8
  330. Codec ID : S_TEXT/UTF8
  331. Codec ID/Info : UTF-8 Plain Text
  332. Duration : 1 h 46 min
  333. Bit rate : 19 b/s
  334. Frame rate : 0.104 FPS
  335. Count of elements : 669
  336. Stream size : 15.4 KiB (0%)
  337. Language : Japanese
  338. Default : No
  339. Forced : No

  340. Text #22
  341. ID : 24
  342. Format : UTF-8
  343. Codec ID : S_TEXT/UTF8
  344. Codec ID/Info : UTF-8 Plain Text
  345. Duration : 1 h 46 min
  346. Bit rate : 22 b/s
  347. Frame rate : 0.106 FPS
  348. Count of elements : 683
  349. Stream size : 17.9 KiB (0%)
  350. Language : Korean
  351. Default : No
  352. Forced : No

  353. Text #23
  354. ID : 25
  355. Format : UTF-8
  356. Codec ID : S_TEXT/UTF8
  357. Codec ID/Info : UTF-8 Plain Text
  358. Duration : 1 h 46 min
  359. Bit rate : 21 b/s
  360. Frame rate : 0.106 FPS
  361. Count of elements : 677
  362. Stream size : 16.6 KiB (0%)
  363. Language : Malay
  364. Default : No
  365. Forced : No

  366. Text #24
  367. ID : 26
  368. Format : UTF-8
  369. Codec ID : S_TEXT/UTF8
  370. Codec ID/Info : UTF-8 Plain Text
  371. Duration : 1 h 46 min
  372. Bit rate : 20 b/s
  373. Frame rate : 0.106 FPS
  374. Count of elements : 678
  375. Stream size : 15.7 KiB (0%)
  376. Language : Norwegian Bokmal
  377. Default : No
  378. Forced : No

  379. Text #25
  380. ID : 27
  381. Format : UTF-8
  382. Codec ID : S_TEXT/UTF8
  383. Codec ID/Info : UTF-8 Plain Text
  384. Duration : 1 h 46 min
  385. Bit rate : 19 b/s
  386. Frame rate : 0.097 FPS
  387. Count of elements : 625
  388. Stream size : 15.5 KiB (0%)
  389. Language : Dutch
  390. Default : No
  391. Forced : No

  392. Text #26
  393. ID : 28
  394. Format : UTF-8
  395. Codec ID : S_TEXT/UTF8
  396. Codec ID/Info : UTF-8 Plain Text
  397. Duration : 1 h 46 min
  398. Bit rate : 20 b/s
  399. Frame rate : 0.106 FPS
  400. Count of elements : 679
  401. Stream size : 15.7 KiB (0%)
  402. Language : Polish
  403. Default : No
  404. Forced : No

  405. Text #27
  406. ID : 29
  407. Format : UTF-8
  408. Codec ID : S_TEXT/UTF8
  409. Codec ID/Info : UTF-8 Plain Text
  410. Duration : 1 h 46 min
  411. Bit rate : 20 b/s
  412. Frame rate : 0.106 FPS
  413. Count of elements : 682
  414. Stream size : 16.2 KiB (0%)
  415. Title : Brazilian
  416. Language : Portuguese (BR)
  417. Default : No
  418. Forced : No

  419. Text #28
  420. ID : 30
  421. Format : UTF-8
  422. Codec ID : S_TEXT/UTF8
  423. Codec ID/Info : UTF-8 Plain Text
  424. Duration : 1 h 46 min
  425. Bit rate : 20 b/s
  426. Frame rate : 0.106 FPS
  427. Count of elements : 678
  428. Stream size : 15.8 KiB (0%)
  429. Language : Portuguese (PT)
  430. Default : No
  431. Forced : No

  432. Text #29
  433. ID : 31
  434. Format : UTF-8
  435. Codec ID : S_TEXT/UTF8
  436. Codec ID/Info : UTF-8 Plain Text
  437. Duration : 1 h 46 min
  438. Bit rate : 21 b/s
  439. Frame rate : 0.106 FPS
  440. Count of elements : 679
  441. Stream size : 16.5 KiB (0%)
  442. Language : Romanian
  443. Default : No
  444. Forced : No

  445. Text #30
  446. ID : 32
  447. Format : UTF-8
  448. Codec ID : S_TEXT/UTF8
  449. Codec ID/Info : UTF-8 Plain Text
  450. Duration : 1 h 46 min
  451. Bit rate : 35 b/s
  452. Frame rate : 0.107 FPS
  453. Count of elements : 686
  454. Stream size : 27.9 KiB (0%)
  455. Language : Russian
  456. Default : No
  457. Forced : No

  458. Text #31
  459. ID : 33
  460. Format : UTF-8
  461. Codec ID : S_TEXT/UTF8
  462. Codec ID/Info : UTF-8 Plain Text
  463. Duration : 1 h 46 min
  464. Bit rate : 20 b/s
  465. Frame rate : 0.106 FPS
  466. Count of elements : 681
  467. Stream size : 16.2 KiB (0%)
  468. Language : Swedish
  469. Default : No
  470. Forced : No

  471. Text #32
  472. ID : 34
  473. Format : UTF-8
  474. Codec ID : S_TEXT/UTF8
  475. Codec ID/Info : UTF-8 Plain Text
  476. Duration : 1 h 46 min
  477. Bit rate : 51 b/s
  478. Frame rate : 0.107 FPS
  479. Count of elements : 686
  480. Stream size : 40.7 KiB (0%)
  481. Language : Thai
  482. Default : No
  483. Forced : No

  484. Text #33
  485. ID : 35
  486. Format : UTF-8
  487. Codec ID : S_TEXT/UTF8
  488. Codec ID/Info : UTF-8 Plain Text
  489. Duration : 1 h 46 min
  490. Bit rate : 21 b/s
  491. Frame rate : 0.104 FPS
  492. Count of elements : 664
  493. Stream size : 16.8 KiB (0%)
  494. Language : Turkish
  495. Default : No
  496. Forced : No

  497. Text #34
  498. ID : 36
  499. Format : UTF-8
  500. Codec ID : S_TEXT/UTF8
  501. Codec ID/Info : UTF-8 Plain Text
  502. Duration : 1 h 46 min
  503. Bit rate : 36 b/s
  504. Frame rate : 0.107 FPS
  505. Count of elements : 686
  506. Stream size : 28.7 KiB (0%)
  507. Language : Ukrainian
  508. Default : No
  509. Forced : No

  510. Text #35
  511. ID : 37
  512. Format : UTF-8
  513. Codec ID : S_TEXT/UTF8
  514. Codec ID/Info : UTF-8 Plain Text
  515. Duration : 1 h 46 min
  516. Bit rate : 27 b/s
  517. Frame rate : 0.106 FPS
  518. Count of elements : 681
  519. Stream size : 21.6 KiB (0%)
  520. Language : Vietnamese
  521. Default : No
  522. Forced : No

  523. Text #36
  524. ID : 38
  525. Format : UTF-8
  526. Codec ID : S_TEXT/UTF8
  527. Codec ID/Info : UTF-8 Plain Text
  528. Duration : 1 h 46 min
  529. Bit rate : 20 b/s
  530. Frame rate : 0.107 FPS
  531. Count of elements : 686
  532. Stream size : 15.8 KiB (0%)
  533. Title : Simplified
  534. Language : Chinese (Simplified)
  535. Default : No
  536. Forced : No

  537. Text #37
  538. ID : 39
  539. Format : UTF-8
  540. Codec ID : S_TEXT/UTF8
  541. Codec ID/Info : UTF-8 Plain Text
  542. Duration : 1 h 46 min
  543. Bit rate : 17 b/s
  544. Frame rate : 0.107 FPS
  545. Count of elements : 686
  546. Stream size : 13.6 KiB (0%)
  547. Title : Traditional
  548. Language : Chinese (Traditional)
  549. Default : No
  550. Forced : No
复制代码
少女斗恶龙/未婚女子/流浪女子 [中字].Damsel.2024.1080p.NF.WEB-DL.DDP5.1.Atmos.H.264-TAG 5.68GB-2.png 少女斗恶龙/未婚女子/流浪女子 [中字].Damsel.2024.1080p.NF.WEB-DL.DDP5.1.Atmos.H.264-TAG 5.68GB-3.png 少女斗恶龙/未婚女子/流浪女子 [中字].Damsel.2024.1080p.NF.WEB-DL.DDP5.1.Atmos.H.264-TAG 5.68GB-4.png 少女斗恶龙/未婚女子/流浪女子 [中字].Damsel.2024.1080p.NF.WEB-DL.DDP5.1.Atmos.H.264-TAG 5.68GB-5.png 少女斗恶龙/未婚女子/流浪女子 [中字].Damsel.2024.1080p.NF.WEB-DL.DDP5.1.Atmos.H.264-TAG 5.68GB-6.png 少女斗恶龙/未婚女子/流浪女子 [中字].Damsel.2024.1080p.NF.WEB-DL.DDP5.1.Atmos.H.264-TAG 5.68GB-7.png









回复

使用道具 举报

蓝光币
4
发表于 2024-5-29 17:16:24 | 显示全部楼层

既然你诚信诚意的推荐了,那我就勉为其难的看看吧!蓝光电影网不走平凡路。
回复

使用道具 举报

懒得打字嘛,点击右侧快捷回复 【右侧内容,后台自定义】
您需要登录后才可以回帖 登录 | 立即加入

本版积分规则

Archiver| |网站地图

Copyright © 2024 Comsenz Inc. Powered by 蓝光电影网

本站内容由用户自主分享和转载自互联网,转载目的在于传递更多信息,并不代表本网赞同其观点和对其真实性负责。

如有侵权、违反国家法律政策行为,请联系我们,我们会第一时间及时清除和处理!

举报反馈邮箱:4k1080.com@gmail.com

快速回复 返回顶部 返回列表