找回密码

查看: 516|回复: 1

[2000][日本][战争]葵 徳川三代 [第1季][49集全].Aoi.S01.2000.1080p.AMZN.WEB-DL.DD+2.0.H.264-TAG 146.74GB

[复制链接]
蓝光币
1917
发表于 2024-3-21 21:26:39 | 显示全部楼层 |阅读模式
[2000][日本][战争]葵 徳川三代 [第1季][49集全].Aoi.S01.2000.1080p.AMZN.WEB-DL.DD+2.0.H.264-TAG 146.74GB-1.jpg
                       
◎译  名 葵 德川三代/新幕贵寓将军德川家康
◎片  名 葵 徳川三代
◎年  代 2000
◎产  地 日本
◎类  型 电视剧
◎类  别 历史 / 战争
◎语  言 日语
◎上映日期 2000-01-09(日本)
◎IMDb评分 8.3/10 from 15 users
◎IMDb链接 https://www.imdb.com/title/tt1162320/
◎豆瓣评分 9.2/10 from 1,437 users
◎豆瓣链接 https://movie.douban.com/subject/2272240/
◎集  数 49
◎单集片长 45分钟


◎标  签 大河剧 | 日剧 | 德川家康 | 日本 | 历史 | 日本战国 | 战国 | 津川雅彦
◎简  介
  葵 德川三代是日本放送协会|NHK在2000年年建造播放的第39部NHK大河剧,播放时代是2000年1月9日 - 12月17日。

  本剧故事是从关原之战之前起头说起,以德川家康、德川秀忠、德川家光祖孙三代为配角,描写在德川幕府建立进程中,丰臣家若何衰亡,以及之後德川家与朝廷之间的关系。前半部可以说是与日本战国相关的戏码,而後半部则是以家庭、政治为主的戏剧。

  第一集全集在表演关原之战当天的情形,而在二到十三集则是回溯关原之战的进程。剧中以中村梅雀饰演的德川光国当讲解旁白,论述其祖的故事。全剧采高画质播出,也利用了很多CG结果。

  本剧可谓是一部相当遵照史实表演的历史剧,采用的配角演员也绝大部分是气力派资深演员。可是由于演员年数实在太大,虽然演技精湛,却也形成一般观众对此诟病。

  1. 文件名: Aoi.S01E01.1080p.AMZN.WEB-DL.DD+2.0.H.264-ARiN.mkv
  2. 日 期: 2023-03-12
  3. 体 积: 6.01 GiB
  4. 时 长: 1h 25min
  5. 帧 率: 29.970 fps
  6. 分辨率: 1920 x 1080 (16:9)
  7. 视 频: 9900 Kbps
  8. 音 频: Japanese DDPlus 2.0 @ 224 Kbps (日本語)
复制代码
  1. General
  2. Unique ID : 196027141819803334336429333339903849014 (0x93797448B3A42677FC6E4CE782337236)
  3. Complete name : D:\Amazon\Aoi.S01.1080p.AMZN.WEB-DL.DD+2.0.H.264-ARiN\Aoi.S01E01.1080p.AMZN.WEB-DL.DD+2.0.H.264-ARiN.mkv
  4. Format : Matroska
  5. Format version : Version 4
  6. File size : 6.01 GiB
  7. Duration : 1 h 25 min
  8. Overall bit rate : 10.1 Mb/s
  9. Encoded date : UTC 2023-03-12 14:25:16
  10. Writing application : mkvmerge v68.0.0 (‘The Curtain‘) 64-bit
  11. Writing library : libebml v1.4.2 + libmatroska v1.6.4

  12. Video
  13. ID : 1
  14. Format : AVC
  15. Format/Info : Advanced Video Codec
  16. Format profile : High@L4
  17. Format settings : CABAC / 4 Ref Frames
  18. Format settings, CABAC : Yes
  19. Format settings, Reference frames : 4 frames
  20. Codec ID : V_MPEG4/ISO/AVC
  21. Duration : 1 h 25 min
  22. Bit rate : 9 900 kb/s
  23. Width : 1 920 pixels
  24. Height : 1 080 pixels
  25. Display aspect ratio : 16:9
  26. Frame rate mode : Constant
  27. Frame rate : 29.970 (30000/1001) FPS
  28. Color space : YUV
  29. Chroma subsampling : 4:2:0
  30. Bit depth : 8 bits
  31. Scan type : Progressive
  32. Bits/(Pixel*Frame) : 0.159
  33. Stream size : 5.88 GiB (98%)
  34. Default : Yes
  35. Forced : No
  36. Color range : Limited
  37. Color primaries : BT.709
  38. Transfer characteristics : BT.709
  39. Matrix coefficients : BT.709

  40. Audio
  41. ID : 2
  42. Format : E-AC-3
  43. Format/Info : Enhanced AC-3
  44. Commercial name : Dolby Digital Plus
  45. Codec ID : A_EAC3
  46. Duration : 1 h 25 min
  47. Bit rate mode : Constant
  48. Bit rate : 224 kb/s
  49. Channel(s) : 2 channels
  50. Channel layout : L R
  51. Sampling rate : 48.0 kHz
  52. Frame rate : 31.250 FPS (1536 SPF)
  53. Compression mode : Lossy
  54. Stream size : 136 MiB (2%)
  55. Title : 日本語
  56. Language : Japanese
  57. Service kind : Complete Main
  58. Default : Yes
  59. Forced : No
复制代码
[2000][日本][战争]葵 徳川三代 [第1季][49集全].Aoi.S01.2000.1080p.AMZN.WEB-DL.DD+2.0.H.264-TAG 146.74GB-2.png
[2000][日本][战争]葵 徳川三代 [第1季][49集全].Aoi.S01.2000.1080p.AMZN.WEB-DL.DD+2.0.H.264-TAG 146.74GB-3.png
[2000][日本][战争]葵 徳川三代 [第1季][49集全].Aoi.S01.2000.1080p.AMZN.WEB-DL.DD+2.0.H.264-TAG 146.74GB-4.png
[2000][日本][战争]葵 徳川三代 [第1季][49集全].Aoi.S01.2000.1080p.AMZN.WEB-DL.DD+2.0.H.264-TAG 146.74GB-5.png
[2000][日本][战争]葵 徳川三代 [第1季][49集全].Aoi.S01.2000.1080p.AMZN.WEB-DL.DD+2.0.H.264-TAG 146.74GB-6.png
[2000][日本][战争]葵 徳川三代 [第1季][49集全].Aoi.S01.2000.1080p.AMZN.WEB-DL.DD+2.0.H.264-TAG 146.74GB-1.png








回复

使用道具 举报

蓝光币
55
发表于 2024-3-25 14:31:46 | 显示全部楼层
楼主发贴辛苦了,谢谢楼主分享!我觉得蓝光电影网是注册对了!
回复

使用道具 举报

懒得打字嘛,点击右侧快捷回复 【右侧内容,后台自定义】
您需要登录后才可以回帖 登录 | 立即加入

本版积分规则

Archiver| |网站地图

Copyright © 2024 Comsenz Inc. Powered by 蓝光电影网

本站内容由用户自主分享和转载自互联网,转载目的在于传递更多信息,并不代表本网赞同其观点和对其真实性负责。

如有侵权、违反国家法律政策行为,请联系我们,我们会第一时间及时清除和处理!

举报反馈邮箱:4k1080.com@gmail.com

快速回复 返回顶部 返回列表