找回密码

查看: 559|回复: 0

[喜剧] 任达华(舞男三部曲:1990 香港舞男、1992 舞男情未了、1992 天生舞男).Simon Yam.1990-1992.NTSC.DVD-Video.Pack-TAG 12.70GB

[复制链接]
蓝光币
1925
发表于 2024-3-21 23:39:20 | 显示全部楼层 |阅读模式
任达华(舞男三部曲:1990 香港舞男、1992 舞男情未了、1992 天生舞男).Simon Yam.1990-1992.NTSC.DVD-Video.Pack-TAG 12.70GB-1.jpg
中文片名:香港舞男 (1990)
外文片名: Hong Kong Gigolo
导演: 林德禄
编剧: 阮世生 / 邵丽琼
主演: 任达华 / 万梓良 / 郑浩南 / 冯宝宝 / 文素 / 林建明 / 吴孟达 / 梁韵蕊 / 谭倩红
范例: 剧情 / 情色
制片国家/地域: 中国香港
说话: 粤语
上映日期: 1990-11-10(中国香港)
片长: 95分钟
IMDb链接: tt0100969
豆瓣评分:6.6

剧情简介

  祥(万梓良 饰)、伟(任达华 饰)与祖(郑浩南 饰)是某酒吧的三名男妓,他们各有各的本性和客人。 祥已近中年,虽曾一度是客人的“骄子”,但因体力不支、色相虚弱渐渐失势,为了连结“雄风”,他黑暗服食禁药,引致人命危险;伟英俊潇洒,是业内当红炸子鸡,他与祥本是朋友,但因抢尽风光逐步被后者记恨,而他决心向家人隐瞒的身份也被曝光,致使家人跟他受累;祖深爱某富家女孩,做舞男只为配上该女身价,可是无意间被对方怙恃知晓身份后,他也只能被迫转身,与此同时,他卷入某阔太太的命案中成为疑凶。


任达华(舞男三部曲:1990 香港舞男、1992 舞男情未了、1992 天生舞男).Simon Yam.1990-1992.NTSC.DVD-Video.Pack-TAG 12.70GB-2.jpg
中文片名:舞男情未了 (1992)
外文片名: Gigolo and Whore II
导演: 钱永强
编剧: 苏文星 / 雅南
主演: 关之琳 / 任达华 / 叶玉卿 / 方中信 / 吕颂贤
范例: 笑剧 / 情色
制片国家/地域: 中国香港
说话: 粤语
上映日期: 1992-03-12(中国香港)
片长: 90 分钟
IMDb链接: tt0111753
豆瓣评分:6.2

剧情简介

  庄臣(方中信饰)是李氏团体最有希望的继任董事,不意陈董之女陈卓灵(关之琳饰)从英国归来,猖狂跋扈,不单收买了公司50%以上的股份,成为新一任的公司主席,更设想让庄臣当众出丑,颜面尽失。
  受尽羞辱的庄臣只要乞助于全港最红的俊男吧吧主珍妮(叶玉卿饰),请其找个舞男将陈卓灵礼服。珍妮因而叫自己手上最红的舞男也是自己情人的积奇(任达华饰)与他的徒弟小舞男阿禄(吕颂贤饰)前往对付。不意在跟踪卓灵的进程中,二人不单发现陈卓灵是女同道TB,更已有了一个密切女友。不服输的阿禄前往试探,不单被陈卓灵一伙女同道暴打,更被羞辱得没有了庄严。
  阿禄败下阵来,因而积奇下定决心要收服这个蛮横的富家女,他将使出全港第一舞男的绝招......


任达华(舞男三部曲:1990 香港舞男、1992 舞男情未了、1992 天生舞男).Simon Yam.1990-1992.NTSC.DVD-Video.Pack-TAG 12.70GB-3.jpg
中文片名:与鸭共舞 (1992)
外文片名: Cash On Delivery / 天生舞男
导演: 唐基明
编剧: 唐基明 / 阮世生
主演: 任达华 / 吴君如 / 叶玉卿 / 张铮 / 周文健
范例: 剧情 / 笑剧
制片国家/地域: 中国香港
说话: 粤语
上映日期: 1992-04-30
片长: 85分钟
IMDb链接: tt0105880
豆瓣评分:6.0

剧情简介

  退休舞男Simon现处置古玩买卖掮客,素性风骚倜傥,他的表弟Mike是一个新入行的舞男,因事惹上讼事,Simon为救表弟,因此与性情守旧的女助理检控官Sandy了解,最初Simon于庭上斗赢了Sandy,令Sandy对他又爱又恨。富家太太留太太嫁了世家子Peter,没有女儿,令家属甚为不满,Peter遂与妻子同谋用金钱雇请舞男借种,唯留太太只看中退休舞男Simon。Sandy有凶险下属林冲,经常榨取她,而且结合杀鸭警司扫荡舞男,Sandy这时对Simon有倾慕之意,欲告诉Simon,成果反被下属知悉,蒙受革退,Simon知悉Sandy低沉,极盼与Sandy和洽成长一段真正友谊。留太太原本操纵Simon借种,成果爱上Simon,苦缠Simon,Simon欲向留太太摊牌,Peter出现,纠缠间Simon错手杀了Peter,留太太大力指证simon谋杀丈夫。Sandy为救情郎充任Simon辩解律师应用智谋,引得留太太表露弱点,成为污点证人,Simon无罪开释。

视频截图:
任达华(舞男三部曲:1990 香港舞男、1992 舞男情未了、1992 天生舞男).Simon Yam.1990-1992.NTSC.DVD-Video.Pack-TAG 12.70GB-4.jpg 任达华(舞男三部曲:1990 香港舞男、1992 舞男情未了、1992 天生舞男).Simon Yam.1990-1992.NTSC.DVD-Video.Pack-TAG 12.70GB-5.jpg 任达华(舞男三部曲:1990 香港舞男、1992 舞男情未了、1992 天生舞男).Simon Yam.1990-1992.NTSC.DVD-Video.Pack-TAG 12.70GB-6.jpg



  1. General
  2. Complete name                  : H:\VIDEO_TS\VTS_01_2.VOB
  3. Format                         : MPEG-PS
  4. File size                      : 1 024 MiB
  5. Duration                       : 19 min 45 s
  6. Overall bit rate mode          : Variable
  7. Overall bit rate               : 7 245 kb/s

  8. Video
  9. ID                             : 224 (0xE0)
  10. Format                         : MPEG Video
  11. Format version                 : Version 2
  12. Format profile                 : Main@Main
  13. Format settings                : CustomMatrix / BVOP
  14. Format settings, BVOP          : Yes
  15. Format settings, Matrix        : Custom
  16. Format settings, GOP           : M=3, N=15
  17. Format settings, picture struc : Frame
  18. Duration                       : 19 min 45 s
  19. Bit rate mode                  : Variable
  20. Bit rate                       : 6 205 kb/s
  21. Width                          : 720 pixels
  22. Height                         : 480 pixels
  23. Display aspect ratio           : 4:3
  24. Frame rate                     : 29.970 (30000/1001) FPS
  25. Standard                       : NTSC
  26. Color space                    : YUV
  27. Chroma subsampling             : 4:2:0
  28. Bit depth                      : 8 bits
  29. Scan type                      : Interlaced
  30. Scan order                     : Top Field First
  31. Compression mode               : Lossy
  32. Bits/(Pixel*Frame)             : 0.599
  33. Time code of first frame       : 00:21:02:28
  34. Time code source               : Group of pictures header
  35. GOP, Open/Closed               : Open
  36. Stream size                    : 877 MiB (86%)

  37. Audio #1
  38. ID                             : 189 (0xBD)-128 (0x80)
  39. Format                         : AC-3
  40. Format/Info                    : Audio Coding 3
  41. Commercial name                : Dolby Digital
  42. Muxing mode                    : DVD-Video
  43. Duration                       : 19 min 45 s
  44. Bit rate mode                  : Constant
  45. Bit rate                       : 448 kb/s
  46. Channel(s)                     : 6 channels
  47. Channel layout                 : L R C LFE Ls Rs
  48. Sampling rate                  : 48.0 kHz
  49. Frame rate                     : 31.250 FPS (1536 SPF)
  50. Bit depth                      : 16 bits
  51. Compression mode               : Lossy
  52. Delay relative to video        : -323 ms
  53. Stream size                    : 63.3 MiB (6%)
  54. Service kind                   : Complete Main

  55. Audio #2
  56. ID                             : 189 (0xBD)-129 (0x81)
  57. Format                         : AC-3
  58. Format/Info                    : Audio Coding 3
  59. Commercial name                : Dolby Digital
  60. Muxing mode                    : DVD-Video
  61. Duration                       : 19 min 45 s
  62. Bit rate mode                  : Constant
  63. Bit rate                       : 448 kb/s
  64. Channel(s)                     : 6 channels
  65. Channel layout                 : L R C LFE Ls Rs
  66. Sampling rate                  : 48.0 kHz
  67. Frame rate                     : 31.250 FPS (1536 SPF)
  68. Bit depth                      : 16 bits
  69. Compression mode               : Lossy
  70. Delay relative to video        : -323 ms
  71. Stream size                    : 63.3 MiB (6%)
  72. Service kind                   : Complete Main

  73. Menu

  74. General
  75. Complete name                  : H:\VIDEO_TS\VTS_01_1.vob
  76. Format                         : MPEG-PS
  77. File size                      : 1 024 MiB
  78. Duration                       : 23 min 35 s
  79. Overall bit rate mode          : Variable
  80. Overall bit rate               : 6 069 kb/s

  81. Video
  82. ID                             : 224 (0xE0)
  83. Format                         : MPEG Video
  84. Format version                 : Version 2
  85. Format profile                 : Main@Main
  86. Format settings                : BVOP
  87. Format settings, BVOP          : Yes
  88. Format settings, Matrix        : Default
  89. Format settings, GOP           : Variable
  90. Format settings, picture struc : Frame
  91. Duration                       : 23 min 35 s
  92. Bit rate mode                  : Variable
  93. Bit rate                       : 5 308 kb/s
  94. Maximum bit rate               : 8 000 kb/s
  95. Width                          : 720 pixels
  96. Height                         : 480 pixels
  97. Display aspect ratio           : 4:3
  98. Frame rate                     : 29.970 (30000/1001) FPS
  99. Standard                       : NTSC
  100. Color space                    : YUV
  101. Chroma subsampling             : 4:2:0
  102. Bit depth                      : 8 bits
  103. Scan type                      : Interlaced
  104. Scan order                     : Top Field First
  105. Compression mode               : Lossy
  106. Bits/(Pixel*Frame)             : 0.512
  107. Time code of first frame       : 01:01:06:29
  108. Time code source               : Group of pictures header
  109. GOP, Open/Closed               : Open
  110. Stream size                    : 896 MiB (87%)
  111. Color primaries                : BT.601 PAL
  112. Transfer characteristics       : BT.470 System B/G
  113. Matrix coefficients            : BT.470 System B/G

  114. Audio #1
  115. ID                             : 189 (0xBD)-128 (0x80)
  116. Format                         : AC-3
  117. Format/Info                    : Audio Coding 3
  118. Commercial name                : Dolby Digital
  119. Muxing mode                    : DVD-Video
  120. Duration                       : 23 min 35 s
  121. Bit rate mode                  : Constant
  122. Bit rate                       : 320 kb/s
  123. Channel(s)                     : 2 channels
  124. Channel layout                 : L R
  125. Sampling rate                  : 48.0 kHz
  126. Frame rate                     : 31.250 FPS (1536 SPF)
  127. Bit depth                      : 16 bits
  128. Compression mode               : Lossy
  129. Stream size                    : 54.0 MiB (5%)
  130. Service kind                   : Complete Main

  131. Audio #2
  132. ID                             : 189 (0xBD)-129 (0x81)
  133. Format                         : AC-3
  134. Format/Info                    : Audio Coding 3
  135. Commercial name                : Dolby Digital
  136. Muxing mode                    : DVD-Video
  137. Duration                       : 23 min 35 s
  138. Bit rate mode                  : Constant
  139. Bit rate                       : 320 kb/s
  140. Channel(s)                     : 4 channels
  141. Channel layout                 : L R Cb LFE
  142. Sampling rate                  : 48.0 kHz
  143. Frame rate                     : 31.250 FPS (1536 SPF)
  144. Bit depth                      : 16 bits
  145. Compression mode               : Lossy
  146. Stream size                    : 54.0 MiB (5%)
  147. Service kind                   : Complete Main

  148. Menu

  149. General
  150. Complete name                  : H:\VIDEO_TS\VTS_01_1.VOB
  151. Format                         : MPEG-PS
  152. File size                      : 1 024 MiB
  153. Duration                       : 23 min 35 s
  154. Overall bit rate mode          : Variable
  155. Overall bit rate               : 6 067 kb/s

  156. Video
  157. ID                             : 224 (0xE0)
  158. Format                         : MPEG Video
  159. Format version                 : Version 2
  160. Format profile                 : Main@Main
  161. Format settings                : BVOP
  162. Format settings, BVOP          : Yes
  163. Format settings, Matrix        : Default
  164. Format settings, GOP           : M=3, N=13
  165. Format settings, picture struc : Frame
  166. Duration                       : 23 min 35 s
  167. Bit rate mode                  : Variable
  168. Bit rate                       : 5 306 kb/s
  169. Maximum bit rate               : 8 000 kb/s
  170. Width                          : 720 pixels
  171. Height                         : 480 pixels
  172. Display aspect ratio           : 4:3
  173. Frame rate                     : 29.970 (30000/1001) FPS
  174. Standard                       : NTSC
  175. Color space                    : YUV
  176. Chroma subsampling             : 4:2:0
  177. Bit depth                      : 8 bits
  178. Scan type                      : Interlaced
  179. Scan order                     : Top Field First
  180. Compression mode               : Lossy
  181. Bits/(Pixel*Frame)             : 0.512
  182. Time code of first frame       : 01:01:07:00
  183. Time code source               : Group of pictures header
  184. GOP, Open/Closed               : Open
  185. Stream size                    : 896 MiB (87%)
  186. Color primaries                : BT.601 PAL
  187. Transfer characteristics       : BT.470 System B/G
  188. Matrix coefficients            : BT.470 System B/G

  189. Audio #1
  190. ID                             : 189 (0xBD)-128 (0x80)
  191. Format                         : AC-3
  192. Format/Info                    : Audio Coding 3
  193. Commercial name                : Dolby Digital
  194. Muxing mode                    : DVD-Video
  195. Duration                       : 23 min 35 s
  196. Bit rate mode                  : Constant
  197. Bit rate                       : 320 kb/s
  198. Channel(s)                     : 2 channels
  199. Channel layout                 : L R
  200. Sampling rate                  : 48.0 kHz
  201. Frame rate                     : 31.250 FPS (1536 SPF)
  202. Bit depth                      : 16 bits
  203. Compression mode               : Lossy
  204. Stream size                    : 54.0 MiB (5%)
  205. Service kind                   : Complete Main

  206. Audio #2
  207. ID                             : 189 (0xBD)-129 (0x81)
  208. Format                         : AC-3
  209. Format/Info                    : Audio Coding 3
  210. Commercial name                : Dolby Digital
  211. Muxing mode                    : DVD-Video
  212. Duration                       : 23 min 35 s
  213. Bit rate mode                  : Constant
  214. Bit rate                       : 320 kb/s
  215. Channel(s)                     : 4 channels
  216. Channel layout                 : L R Cb LFE
  217. Sampling rate                  : 48.0 kHz
  218. Frame rate                     : 31.250 FPS (1536 SPF)
  219. Bit depth                      : 16 bits
  220. Compression mode               : Lossy
  221. Stream size                    : 54.0 MiB (5%)
  222. Service kind                   : Complete Main

  223. Menu
复制代码










回复

使用道具 举报

懒得打字嘛,点击右侧快捷回复 【右侧内容,后台自定义】
您需要登录后才可以回帖 登录 | 立即加入

本版积分规则

Archiver| |网站地图

Copyright © 2024 Comsenz Inc. Powered by 蓝光电影网

本站内容由用户自主分享和转载自互联网,转载目的在于传递更多信息,并不代表本网赞同其观点和对其真实性负责。

如有侵权、违反国家法律政策行为,请联系我们,我们会第一时间及时清除和处理!

举报反馈邮箱:4k1080.com@gmail.com

快速回复 返回顶部 返回列表