找回密码

查看: 2857|回复: 24

[全集] [2024][美国][科幻]三体/3体/Three-Body Problem [第1季][8集全][中字].3.Body.Problem.S01.2024.1080p.NF.WEB-DL.DDP5.1.Atmos.H.264-TAG 16.91GB

[复制链接]
蓝光币
1917
发表于 2024-3-22 00:59:24 | 显示全部楼层 |阅读模式
[2024][美国][科幻]三体/3体/Three-Body Problem [第1季][8集全][中字].3.Body.Problem.S01.2024.1080p.NF.WEB-DL.DDP5.1.Atmos.H.264-TAG 16.91GB-1.jpg
◎译   名  三体 / 3体 / Three-Body Problem
◎片   名  3 Body Problem
◎年   代  2024
◎产   地  美国 / 中国大陆 / 英国
◎类   别  剧情 / 科幻 / 悬疑 / 奇异 / 冒险
◎语   言  英语 / 汉语普通话
◎上映 日期  2024-03-08(西南偏南电影节) / 2024-03-21(美国)
◎IMDb评分  N/A/10 from N/A users
◎IMDb链接  站外链接 :: [url]https://www.imdb.com/title/tt13016388/[/url]
◎豆瓣 评分  0/10 from 0 users
◎豆瓣 链接  站外链接 :: [url]https://movie.douban.com/subject/35196946/[/url]
◎集   数  8
◎片   长  60分钟
◎导   演  曾国祥 Derek Tsang / 安德鲁·斯坦顿 Andrew Stanton / 明基·斯皮罗 Minkie Spiro / 杰雷米·波德斯瓦 Jeremy Podeswa
◎编   剧  戴维·贝尼奥夫 David Benioff / D·B·威斯 D.B. Weiss / 亚历山大·伍 Alexander Woo / 罗斯·卡特赖特 Rose Cartwright / 马杜里·谢卡 Madhuri Shekar / 刘慈欣 Cixin Liu
◎主   演  齐恩·曾 Zine Tseng  
       王汉斌 Benedict Wong
       艾莎·冈萨雷斯 Eiza González
       约翰·布莱德利 John Bradley
       杰茜·洪 Jess Hong
       约翰·艾德坡 Jovan Adepo
       艾利克斯·夏普 Alex Sharp
       乔纳森·普雷斯 Jonathan Pryce
       利亚姆·坎宁安 Liam Cunningham
       赵家玲 Rosalind Chao
       本·施耐泽 Ben Schnetzer
       玛洛·凯丽 Marlo Kelly
       西·下冈 Sea Shimooka
       沙莫·阿斯玛尼 Saamer Usmani
       伊芙·雷德利 Eve Ridley
       周采芹 Tsai Chin
       安迪·M·米利根 Andy M Milligan
       沙利尼·佩里斯 Shalini Peiris
       罗素·袁 Russell Yuen
       斯欧美·阿巴洛贡 Stacy Abalogun
       海韦尔·摩根 Hywel Morgan
       凯恩·艾登 Cain Aiden
       阿维塔·勒沃瓦 Avital Lvova
       于谷鸣 Yu guming
       杨贺文 Hewen Yang
       范黛特·利姆 Vedette Lim
       埃德蒙德·金斯利 Edmund Kingsley
       马克·雷恩斯伯里 Mark Rainsbury  
       利亚姆·爱德华兹 Liam Edwards  
       詹姆斯·朱 James Chu
       贾梅尔·特纳 Djamel Turner  
       特雷弗·瓦茨 Trevor Watts
       德里克·肖 Derek Siow
       比伊·希丝特兰寇 Bea Svistunenko

◎简  介

  1960年月的中国,一位年轻女性的关键决议掀起跨越时空的波涛,影响了一群身处现代的精采科学家。自然法例在他们眼前逐步支离破裂,五位已经同事的科学家必须再度合作,化解人类史上最严重的威胁。

  1. General
  2. Unique ID : 168210772722552265043176198832303080167 (0x7E8C37670162E6BD65C3A12E92AF82E7)
  3. Complete name : 3.Body.Problem.S01E01.Countdown.1080p.NF.WEB-DL.DDP5.1.Atmos.H.264-TAG.mkv
  4. Format : Matroska
  5. Format version : Version 4
  6. File size : 2.32 GiB
  7. Duration : 1 h 0 min
  8. Overall bit rate mode : Variable
  9. Overall bit rate : 5 474 kb/s
  10. Frame rate : 23.976 FPS
  11. Writing application : mkvmerge v79.0 ('Funeral Pyres') 64-bit
  12. Writing library : libebml v1.4.4 + libmatroska v1.7.1

  13. Video
  14. ID : 1
  15. Format : AVC
  16. Format/Info : Advanced Video Codec
  17. Format profile : Main@L4
  18. Format settings : CABAC / 3 Ref Frames
  19. Format settings, CABAC : Yes
  20. Format settings, Reference frames : 3 frames
  21. Codec ID : V_MPEG4/ISO/AVC
  22. Duration : 1 h 0 min
  23. Bit rate mode : Variable
  24. Bit rate : 4 701 kb/s
  25. Nominal bit rate : 5 000 kb/s
  26. Maximum bit rate : 7 500 kb/s
  27. Width : 1 920 pixels
  28. Height : 1 080 pixels
  29. Display aspect ratio : 16:9
  30. Frame rate mode : Constant
  31. Frame rate : 23.976 (24000/1001) FPS
  32. Color space : YUV
  33. Chroma subsampling : 4:2:0
  34. Bit depth : 8 bits
  35. Scan type : Progressive
  36. Bits/(Pixel*Frame) : 0.095
  37. Stream size : 1.99 GiB (86%)
  38. Writing library : x264 core 148 r2727 7d026e8
  39. Encoding settings : cabac=1 / ref=3 / deblock=1:0:0 / analyse=0x1:0x111 / me=umh / subme=10 / psy=1 / psy_rd=1.00:0.00 / mixed_ref=1 / me_range=24 / chroma_me=1 / trellis=2 / 8x8dct=0 / cqm=0 / deadzone=21,11 / fast_pskip=1 / chroma_qp_offset=-2 / threads=6 / lookahead_threads=1 / sliced_threads=0 / nr=0 / decimate=1 / interlaced=0 / bluray_compat=0 / stitchable=1 / constrained_intra=0 / bframes=2 / b_pyramid=0 / b_adapt=2 / b_bias=0 / direct=3 / weightb=1 / open_gop=0 / weightp=2 / keyint=240 / keyint_min=121 / scenecut=0 / intra_refresh=0 / rc_lookahead=48 / rc=2pass / mbtree=1 / bitrate=5000 / ratetol=1.0 / qcomp=0.50 / qpmin=6 / qpmax=51 / qpstep=4 / cplxblur=20.0 / qblur=0.5 / vbv_maxrate=7500 / vbv_bufsize=10000 / nal_hrd=vbr / filler=0 / ip_ratio=1.40 / aq=1:1.00
  40. Language : English
  41. Default : Yes
  42. Forced : No

  43. Audio
  44. ID : 2
  45. Format : E-AC-3 JOC
  46. Format/Info : Enhanced AC-3 with Joint Object Coding
  47. Commercial name : Dolby Digital Plus with Dolby Atmos
  48. Codec ID : A_EAC3
  49. Duration : 1 h 0 min
  50. Bit rate mode : Constant
  51. Bit rate : 768 kb/s
  52. Channel(s) : 6 channels
  53. Channel layout : L R C LFE Ls Rs
  54. Sampling rate : 48.0 kHz
  55. Frame rate : 31.250 FPS (1536 SPF)
  56. Compression mode : Lossy
  57. Stream size : 333 MiB (14%)
  58. Language : English
  59. Service kind : Complete Main
  60. Default : Yes
  61. Forced : No
  62. Complexity index : 16
  63. Number of dynamic objects : 15
  64. Bed channel count : 1 channel
  65. Bed channel configuration : LFE

  66. Text #1
  67. ID : 3
  68. Format : UTF-8
  69. Codec ID : S_TEXT/UTF8
  70. Codec ID/Info : UTF-8 Plain Text
  71. Duration : 54 min 37 s
  72. Bit rate : 13 b/s
  73. Frame rate : 0.055 FPS
  74. Count of elements : 180
  75. Stream size : 5.21 KiB (0%)
  76. Title : Forced
  77. Language : English
  78. Default : Yes
  79. Forced : Yes

  80. Text #2
  81. ID : 4
  82. Format : UTF-8
  83. Codec ID : S_TEXT/UTF8
  84. Codec ID/Info : UTF-8 Plain Text
  85. Duration : 56 min 7 s
  86. Bit rate : 44 b/s
  87. Frame rate : 0.175 FPS
  88. Count of elements : 589
  89. Stream size : 18.2 KiB (0%)
  90. Language : English
  91. Default : No
  92. Forced : No

  93. Text #3
  94. ID : 5
  95. Format : UTF-8
  96. Codec ID : S_TEXT/UTF8
  97. Codec ID/Info : UTF-8 Plain Text
  98. Duration : 58 min 23 s
  99. Bit rate : 58 b/s
  100. Frame rate : 0.239 FPS
  101. Count of elements : 839
  102. Stream size : 25.2 KiB (0%)
  103. Title : SDH
  104. Language : English
  105. Default : No
  106. Forced : No

  107. Text #4
  108. ID : 6
  109. Format : UTF-8
  110. Codec ID : S_TEXT/UTF8
  111. Codec ID/Info : UTF-8 Plain Text
  112. Duration : 58 min 17 s
  113. Bit rate : 70 b/s
  114. Frame rate : 0.167 FPS
  115. Count of elements : 583
  116. Stream size : 30.0 KiB (0%)
  117. Language : Arabic
  118. Default : No
  119. Forced : No

  120. Text #5
  121. ID : 7
  122. Format : UTF-8
  123. Codec ID : S_TEXT/UTF8
  124. Codec ID/Info : UTF-8 Plain Text
  125. Duration : 58 min 19 s
  126. Bit rate : 38 b/s
  127. Frame rate : 0.169 FPS
  128. Count of elements : 592
  129. Stream size : 16.2 KiB (0%)
  130. Language : Catalan
  131. Default : No
  132. Forced : No

  133. Text #6
  134. ID : 8
  135. Format : UTF-8
  136. Codec ID : S_TEXT/UTF8
  137. Codec ID/Info : UTF-8 Plain Text
  138. Duration : 58 min 23 s
  139. Bit rate : 39 b/s
  140. Frame rate : 0.165 FPS
  141. Count of elements : 579
  142. Stream size : 16.8 KiB (0%)
  143. Language : Czech
  144. Default : No
  145. Forced : No

  146. Text #7
  147. ID : 9
  148. Format : UTF-8
  149. Codec ID : S_TEXT/UTF8
  150. Codec ID/Info : UTF-8 Plain Text
  151. Duration : 58 min 17 s
  152. Bit rate : 37 b/s
  153. Frame rate : 0.146 FPS
  154. Count of elements : 511
  155. Stream size : 16.2 KiB (0%)
  156. Language : Danish
  157. Default : No
  158. Forced : No

  159. Text #8
  160. ID : 10
  161. Format : UTF-8
  162. Codec ID : S_TEXT/UTF8
  163. Codec ID/Info : UTF-8 Plain Text
  164. Duration : 56 min 14 s
  165. Bit rate : 39 b/s
  166. Frame rate : 0.157 FPS
  167. Count of elements : 529
  168. Stream size : 16.2 KiB (0%)
  169. Language : German
  170. Default : No
  171. Forced : No

  172. Text #9
  173. ID : 11
  174. Format : UTF-8
  175. Codec ID : S_TEXT/UTF8
  176. Codec ID/Info : UTF-8 Plain Text
  177. Duration : 58 min 17 s
  178. Bit rate : 65 b/s
  179. Frame rate : 0.167 FPS
  180. Count of elements : 583
  181. Stream size : 28.1 KiB (0%)
  182. Language : Greek
  183. Default : No
  184. Forced : No

  185. Text #10
  186. ID : 12
  187. Format : UTF-8
  188. Codec ID : S_TEXT/UTF8
  189. Codec ID/Info : UTF-8 Plain Text
  190. Duration : 58 min 17 s
  191. Bit rate : 38 b/s
  192. Frame rate : 0.162 FPS
  193. Count of elements : 565
  194. Stream size : 16.4 KiB (0%)
  195. Title : Latin American
  196. Language : Spanish (Latin America)
  197. Default : No
  198. Forced : No

  199. Text #11
  200. ID : 13
  201. Format : UTF-8
  202. Codec ID : S_TEXT/UTF8
  203. Codec ID/Info : UTF-8 Plain Text
  204. Duration : 58 min 19 s
  205. Bit rate : 38 b/s
  206. Frame rate : 0.163 FPS
  207. Count of elements : 572
  208. Stream size : 16.5 KiB (0%)
  209. Language : Spanish (ES)
  210. Default : No
  211. Forced : No

  212. Text #12
  213. ID : 14
  214. Format : UTF-8
  215. Codec ID : S_TEXT/UTF8
  216. Codec ID/Info : UTF-8 Plain Text
  217. Duration : 58 min 21 s
  218. Bit rate : 37 b/s
  219. Frame rate : 0.155 FPS
  220. Count of elements : 544
  221. Stream size : 16.0 KiB (0%)
  222. Language : Basque
  223. Default : No
  224. Forced : No

  225. Text #13
  226. ID : 15
  227. Format : UTF-8
  228. Codec ID : S_TEXT/UTF8
  229. Codec ID/Info : UTF-8 Plain Text
  230. Duration : 58 min 17 s
  231. Bit rate : 38 b/s
  232. Frame rate : 0.147 FPS
  233. Count of elements : 513
  234. Stream size : 16.2 KiB (0%)
  235. Language : Finnish
  236. Default : No
  237. Forced : No

  238. Text #14
  239. ID : 16
  240. Format : UTF-8
  241. Codec ID : S_TEXT/UTF8
  242. Codec ID/Info : UTF-8 Plain Text
  243. Duration : 58 min 10 s
  244. Bit rate : 39 b/s
  245. Frame rate : 0.158 FPS
  246. Count of elements : 551
  247. Stream size : 16.9 KiB (0%)
  248. Language : fil
  249. Default : No
  250. Forced : No

  251. Text #15
  252. ID : 17
  253. Format : UTF-8
  254. Codec ID : S_TEXT/UTF8
  255. Codec ID/Info : UTF-8 Plain Text
  256. Duration : 58 min 17 s
  257. Bit rate : 39 b/s
  258. Frame rate : 0.157 FPS
  259. Count of elements : 550
  260. Stream size : 17.1 KiB (0%)
  261. Language : French
  262. Default : No
  263. Forced : No

  264. Text #16
  265. ID : 18
  266. Format : UTF-8
  267. Codec ID : S_TEXT/UTF8
  268. Codec ID/Info : UTF-8 Plain Text
  269. Duration : 58 min 17 s
  270. Bit rate : 35 b/s
  271. Frame rate : 0.159 FPS
  272. Count of elements : 557
  273. Stream size : 15.3 KiB (0%)
  274. Language : Galician
  275. Default : No
  276. Forced : No

  277. Text #17
  278. ID : 19
  279. Format : UTF-8
  280. Codec ID : S_TEXT/UTF8
  281. Codec ID/Info : UTF-8 Plain Text
  282. Duration : 58 min 16 s
  283. Bit rate : 64 b/s
  284. Frame rate : 0.161 FPS
  285. Count of elements : 562
  286. Stream size : 27.6 KiB (0%)
  287. Language : Hebrew
  288. Default : No
  289. Forced : No

  290. Text #18
  291. ID : 20
  292. Format : UTF-8
  293. Codec ID : S_TEXT/UTF8
  294. Codec ID/Info : UTF-8 Plain Text
  295. Duration : 58 min 17 s
  296. Bit rate : 35 b/s
  297. Frame rate : 0.158 FPS
  298. Count of elements : 553
  299. Stream size : 15.4 KiB (0%)
  300. Language : Croatian
  301. Default : No
  302. Forced : No

  303. Text #19
  304. ID : 21
  305. Format : UTF-8
  306. Codec ID : S_TEXT/UTF8
  307. Codec ID/Info : UTF-8 Plain Text
  308. Duration : 58 min 17 s
  309. Bit rate : 40 b/s
  310. Frame rate : 0.157 FPS
  311. Count of elements : 548
  312. Stream size : 17.4 KiB (0%)
  313. Language : Hungarian
  314. Default : No
  315. Forced : No

  316. Text #20
  317. ID : 22
  318. Format : UTF-8
  319. Codec ID : S_TEXT/UTF8
  320. Codec ID/Info : UTF-8 Plain Text
  321. Duration : 58 min 17 s
  322. Bit rate : 37 b/s
  323. Frame rate : 0.164 FPS
  324. Count of elements : 573
  325. Stream size : 16.0 KiB (0%)
  326. Language : Indonesian
  327. Default : No
  328. Forced : No

  329. Text #21
  330. ID : 23
  331. Format : UTF-8
  332. Codec ID : S_TEXT/UTF8
  333. Codec ID/Info : UTF-8 Plain Text
  334. Duration : 57 min 6 s
  335. Bit rate : 40 b/s
  336. Frame rate : 0.152 FPS
  337. Count of elements : 521
  338. Stream size : 17.0 KiB (0%)
  339. Language : Italian
  340. Default : No
  341. Forced : No

  342. Text #22
  343. ID : 24
  344. Format : UTF-8
  345. Codec ID : S_TEXT/UTF8
  346. Codec ID/Info : UTF-8 Plain Text
  347. Duration : 58 min 17 s
  348. Bit rate : 33 b/s
  349. Frame rate : 0.158 FPS
  350. Count of elements : 552
  351. Stream size : 14.5 KiB (0%)
  352. Language : Japanese
  353. Default : No
  354. Forced : No

  355. Text #23
  356. ID : 25
  357. Format : UTF-8
  358. Codec ID : S_TEXT/UTF8
  359. Codec ID/Info : UTF-8 Plain Text
  360. Duration : 58 min 17 s
  361. Bit rate : 44 b/s
  362. Frame rate : 0.168 FPS
  363. Count of elements : 589
  364. Stream size : 18.8 KiB (0%)
  365. Language : Korean
  366. Default : No
  367. Forced : No

  368. Text #24
  369. ID : 26
  370. Format : UTF-8
  371. Codec ID : S_TEXT/UTF8
  372. Codec ID/Info : UTF-8 Plain Text
  373. Duration : 58 min 19 s
  374. Bit rate : 37 b/s
  375. Frame rate : 0.164 FPS
  376. Count of elements : 574
  377. Stream size : 15.9 KiB (0%)
  378. Language : Malay
  379. Default : No
  380. Forced : No

  381. Text #25
  382. ID : 27
  383. Format : UTF-8
  384. Codec ID : S_TEXT/UTF8
  385. Codec ID/Info : UTF-8 Plain Text
  386. Duration : 58 min 17 s
  387. Bit rate : 38 b/s
  388. Frame rate : 0.131 FPS
  389. Count of elements : 457
  390. Stream size : 16.4 KiB (0%)
  391. Language : Norwegian Bokmal
  392. Default : No
  393. Forced : No

  394. Text #26
  395. ID : 28
  396. Format : UTF-8
  397. Codec ID : S_TEXT/UTF8
  398. Codec ID/Info : UTF-8 Plain Text
  399. Duration : 58 min 17 s
  400. Bit rate : 37 b/s
  401. Frame rate : 0.138 FPS
  402. Count of elements : 484
  403. Stream size : 16.2 KiB (0%)
  404. Language : Dutch
  405. Default : No
  406. Forced : No

  407. Text #27
  408. ID : 29
  409. Format : UTF-8
  410. Codec ID : S_TEXT/UTF8
  411. Codec ID/Info : UTF-8 Plain Text
  412. Duration : 58 min 17 s
  413. Bit rate : 36 b/s
  414. Frame rate : 0.157 FPS
  415. Count of elements : 549
  416. Stream size : 15.6 KiB (0%)
  417. Language : Polish
  418. Default : No
  419. Forced : No

  420. Text #28
  421. ID : 30
  422. Format : UTF-8
  423. Codec ID : S_TEXT/UTF8
  424. Codec ID/Info : UTF-8 Plain Text
  425. Duration : 58 min 17 s
  426. Bit rate : 39 b/s
  427. Frame rate : 0.153 FPS
  428. Count of elements : 535
  429. Stream size : 16.9 KiB (0%)
  430. Title : Brazilian
  431. Language : Portuguese (BR)
  432. Default : No
  433. Forced : No

  434. Text #29
  435. ID : 31
  436. Format : UTF-8
  437. Codec ID : S_TEXT/UTF8
  438. Codec ID/Info : UTF-8 Plain Text
  439. Duration : 58 min 15 s
  440. Bit rate : 41 b/s
  441. Frame rate : 0.165 FPS
  442. Count of elements : 576
  443. Stream size : 17.7 KiB (0%)
  444. Language : Portuguese (PT)
  445. Default : No
  446. Forced : No

  447. Text #30
  448. ID : 32
  449. Format : UTF-8
  450. Codec ID : S_TEXT/UTF8
  451. Codec ID/Info : UTF-8 Plain Text
  452. Duration : 58 min 17 s
  453. Bit rate : 38 b/s
  454. Frame rate : 0.162 FPS
  455. Count of elements : 565
  456. Stream size : 16.4 KiB (0%)
  457. Language : Romanian
  458. Default : No
  459. Forced : No

  460. Text #31
  461. ID : 33
  462. Format : UTF-8
  463. Codec ID : S_TEXT/UTF8
  464. Codec ID/Info : UTF-8 Plain Text
  465. Duration : 58 min 18 s
  466. Bit rate : 64 b/s
  467. Frame rate : 0.163 FPS
  468. Count of elements : 570
  469. Stream size : 27.7 KiB (0%)
  470. Language : Russian
  471. Default : No
  472. Forced : No

  473. Text #32
  474. ID : 34
  475. Format : UTF-8
  476. Codec ID : S_TEXT/UTF8
  477. Codec ID/Info : UTF-8 Plain Text
  478. Duration : 58 min 17 s
  479. Bit rate : 38 b/s
  480. Frame rate : 0.142 FPS
  481. Count of elements : 495
  482. Stream size : 16.5 KiB (0%)
  483. Language : Swedish
  484. Default : No
  485. Forced : No

  486. Text #33
  487. ID : 35
  488. Format : UTF-8
  489. Codec ID : S_TEXT/UTF8
  490. Codec ID/Info : UTF-8 Plain Text
  491. Duration : 58 min 17 s
  492. Bit rate : 101 b/s
  493. Frame rate : 0.166 FPS
  494. Count of elements : 580
  495. Stream size : 43.4 KiB (0%)
  496. Language : Thai
  497. Default : No
  498. Forced : No

  499. Text #34
  500. ID : 36
  501. Format : UTF-8
  502. Codec ID : S_TEXT/UTF8
  503. Codec ID/Info : UTF-8 Plain Text
  504. Duration : 58 min 17 s
  505. Bit rate : 40 b/s
  506. Frame rate : 0.161 FPS
  507. Count of elements : 562
  508. Stream size : 17.3 KiB (0%)
  509. Language : Turkish
  510. Default : No
  511. Forced : No

  512. Text #35
  513. ID : 37
  514. Format : UTF-8
  515. Codec ID : S_TEXT/UTF8
  516. Codec ID/Info : UTF-8 Plain Text
  517. Duration : 58 min 23 s
  518. Bit rate : 67 b/s
  519. Frame rate : 0.169 FPS
  520. Count of elements : 592
  521. Stream size : 28.9 KiB (0%)
  522. Language : Ukrainian
  523. Default : No
  524. Forced : No

  525. Text #36
  526. ID : 38
  527. Format : UTF-8
  528. Codec ID : S_TEXT/UTF8
  529. Codec ID/Info : UTF-8 Plain Text
  530. Duration : 58 min 17 s
  531. Bit rate : 52 b/s
  532. Frame rate : 0.162 FPS
  533. Count of elements : 565
  534. Stream size : 22.3 KiB (0%)
  535. Language : Vietnamese
  536. Default : No
  537. Forced : No

  538. Text #37
  539. ID : 39
  540. Format : UTF-8
  541. Codec ID : S_TEXT/UTF8
  542. Codec ID/Info : UTF-8 Plain Text
  543. Duration : 58 min 17 s
  544. Bit rate : 38 b/s
  545. Frame rate : 0.169 FPS
  546. Count of elements : 590
  547. Stream size : 16.4 KiB (0%)
  548. Title : Simplified
  549. Language : Chinese (Simplified)
  550. Default : No
  551. Forced : No

  552. Text #38
  553. ID : 40
  554. Format : UTF-8
  555. Codec ID : S_TEXT/UTF8
  556. Codec ID/Info : UTF-8 Plain Text
  557. Duration : 58 min 17 s
  558. Bit rate : 35 b/s
  559. Frame rate : 0.177 FPS
  560. Count of elements : 619
  561. Stream size : 15.1 KiB (0%)
  562. Title : Traditional
  563. Language : Chinese (Traditional)
  564. Default : No
  565. Forced : No

  566. Menu
  567. 00:00:00.000 : en:Part 01
  568. 00:56:30.450 : en:Credits
复制代码









回复

使用道具 举报

蓝光币
49
发表于 2024-3-22 09:06:01 | 显示全部楼层
楼主发贴辛苦了,谢谢楼主分享!我觉得蓝光电影网是注册对了!
回复

使用道具 举报

蓝光币
52
发表于 2024-3-22 11:10:46 | 显示全部楼层
资源真的好快,感谢!
回复

使用道具 举报

蓝光币
185
发表于 2024-3-22 14:33:30 | 显示全部楼层

这个帖子不回对不起自己!我想我是一天也不能离开蓝光电影网。
回复

使用道具 举报

蓝光币
1
发表于 2024-3-22 19:57:29 | 显示全部楼层

感谢楼主的无私分享!要想蓝光电影网好 就靠你我他
回复

使用道具 举报

蓝光币
47
发表于 2024-3-23 21:45:30 | 显示全部楼层
谢谢,qbtorrent正在下载!
回复

使用道具 举报

蓝光币
1
发表于 2024-3-25 16:43:02 | 显示全部楼层
现在下载不了了,怎么办?
回复

使用道具 举报

蓝光币
52
发表于 2024-3-25 23:56:32 | 显示全部楼层

现在下载不了了,怎么办?
回复

使用道具 举报

蓝光币
222
发表于 2024-3-27 13:54:07 | 显示全部楼层
可惜不是VIP
回复

使用道具 举报

蓝光币
222
发表于 2024-3-29 10:15:58 | 显示全部楼层
昨天忘记打卡了
回复

使用道具 举报

懒得打字嘛,点击右侧快捷回复 【右侧内容,后台自定义】
您需要登录后才可以回帖 登录 | 立即加入

本版积分规则

Archiver| |网站地图

Copyright © 2024 Comsenz Inc. Powered by 蓝光电影网

本站内容由用户自主分享和转载自互联网,转载目的在于传递更多信息,并不代表本网赞同其观点和对其真实性负责。

如有侵权、违反国家法律政策行为,请联系我们,我们会第一时间及时清除和处理!

举报反馈邮箱:4k1080.com@gmail.com

快速回复 返回顶部 返回列表