找回密码

查看: 1555|回复: 7

[连载] [2024][美国][剧情]幕府将军 [全10集][中字].Shogun.S01.2024.1080p.DSNP.WEB-DL.DDP5.1.H.264-TAG 28.60GB

[复制链接]
蓝光币
1917
发表于 2024-3-22 09:42:31 | 显示全部楼层 |阅读模式
[2024][美国][剧情]幕府将军 [第1-5集][中字].Shogun.S01.2024.1080p.DSNP.WEB-DL.DDP5.1.H.264-TAG 14.46GB-1.jpg

◎译  名 幕府将军 / Shogun
◎片  名 Shōgun
◎年  代 2024
◎产  地 美国
◎类  别 剧情 / 历史 / 战争 / 冒险
◎语  言 英语 / 日语
◎上映日期 2024-02-27(美国)
◎IMDb评分  9.2/10 from 33,756 users
◎IMDb链接  https://www.imdb.com/title/tt2788316/
◎豆瓣评分 8.5/10 from 5,072 users
◎豆瓣链接 https://movie.douban.com/subject/30291334/
◎单集片长 60分钟
◎集  数 10
◎导  演 乔纳森·范塔勒肯 / Jonathan van Tulleken
      弗雷德·托耶 / Fred Toye
      夏洛特·布伦斯特伦 / Charlotte Brandstrom
◎演  员 真田广之 / Hiroyuki Sanada (饰 吉井虎长 Yoshii Toranaga)
      柯斯莫·贾维斯 / Cosmo Jarvis (饰 约翰·布莱克索恩 John Blackthorne)
      泽井杏奈 / Anna Sawai (饰 户田真理子 Lady Mariko)
      浅野忠信 / Tadanobu Asano (饰 柏木矢部 Kashigi Yabushige)
      二阶堂富美 / Fumi Nikaidou (饰 落叶之方 Ochiba No Kata)
      西冈德马 / Tokuma Nishioka (饰 户田广松 Toda Hiromatsu)
      平岳大 / Takehiro Hira (饰 石堂和成 Ishido Kazunari)
      阿部进之介 / Shinnosuke Abe (饰 户田弘重 Toda Hiroshige)
      祁答院雄贵 / Yuki Kedouin (饰 Takemaru)
      尤新·李 / Eushin Lee (饰 Yabushige's Kosho)
      托米·巴斯托 / Tommy Bastow (饰 Father Martin Alvito)
      金井浩人 / Hiroto Kanai (饰 Kashigi Omi)
      博元·井田 / Hiromoto Ida (饰 Kiyama ukon Sadanaga)
      江见·神藤 / Emi Kamito (饰 Chiyo)
      健吾·桥本 / Kengo Hashimoto (饰 Ishido's Gray Kosho)
      森·马尔斯 / Sen Mars (饰 Yaechiyo Nakamura)
      俊·户田 / Toshi Toda (饰 Sugiyama)
      真子·藤本 / Mako Fujimoto (饰 Shizu No Kata)
      向里祐香 / Yuuka Kouri (饰 Kiku)
      安成·竹岛 / Yasunari Takeshima (饰 Muraji)
      展也·岛本 / Nobuya Shimamoto (饰 Jozen)
      田尻纯一 / Junichi Tajiri (饰 Uejiro)
      保罗·程 / Paul Cheng (饰 Village Peasant)
      达科他·道尔比 / Dakota Daulby (饰 Salamon)
      亚子 / Ako (饰 Lady Iyo)
      内斯特·卡博内尔 / Nestor Carbonell (饰 Father Rodrigues)
      洞口依子 / Yoriko Douguchi (饰 Kiri no Kata)
      穗志萌香 / Moeka Hoshi (饰 Usami Fuji)
      金川弘敦 / Hiro Kanagawa (饰 Igarashi)
      仓悠贵 / Yuki Kura
◎编  剧 雷切尔·近藤 / Rachel Kondo
      梅根·黄 / Maegan Houang
      贾斯丁·马科斯 / Justin Marks
      马特·兰伯特 / Matt Lambert
      奈杰尔·威廉 / Nigel Williams
      詹姆斯·克拉韦尔 / James Clavell
      香农·戈斯 / Shannon Goss
      埃米莉·尤斯达 / Emily Yoshida
      凯林·蓬特 / Caillin Puente
◎制  片  人 马特·兰伯特 / Matt Lambert
      凯林·蓬特 / Caillin Puente
      贾斯丁·马科斯 / Justin Marks
      雷切尔·近藤 / Rachel Kondo
      真田广之 / Hiroyuki Sanada
      乔纳森·范塔勒肯 / Jonathan van Tulleken
      香农·戈斯 / Shannon Goss
◎音  乐 利奥波德·罗斯 / Leopold Ross
      尼克·楚巴 / Nick Chuba
      阿提喀斯·罗斯 / Atticus Ross
◎摄  影 萨姆·麦柯迪 / Sam McCurdy
      阿里尔·韦特布莱德 / Aril Wretblad
      克里斯托弗·罗斯 / Christopher Ross

◎简  介 

  FX公布间接日本布景10集限制剧《幕府将军 Shōgun》,该剧按照James Clavell的畅销小说改编,曩昔已曾被改编成1980年同名迷你剧,并夺得艾美奖及金球奖。该剧布景设备在日本战国和江户幕府时代(以下内容融合了部分小说简介及简评),原型是「德川家康和三浦按针」,报告英国海员John Blackthorne因遭受海难而漂泊到日本,在此他遇上精明﹑强大的「台甫」Toranaga,以及有才能但家庭关系复杂的Mariko夫人。

  1. General
  2. Unique ID : 325366465651873492813282572191802730781 (0xF4C74D49F6925ACE6F6E461200E2291D)
  3. Complete name : Shogun.S01E05.2024.1080p.DSNP.WEB-DL.DDP5.1.H264-TAG.mkv
  4. Format : Matroska
  5. Format version : Version 4
  6. File size : 2.72 GiB
  7. Duration : 56 min 15 s
  8. Overall bit rate mode : Variable
  9. Overall bit rate : 6 919 kb/s
  10. Frame rate : 24.000 FPS
  11. Writing application : mkvmerge v79.0 (\'Funeral Pyres\') 64-bit
  12. Writing library : libebml v1.4.4 + libmatroska v1.7.1

  13. Video
  14. ID : 1
  15. Format : AVC
  16. Format/Info : Advanced Video Codec
  17. Format profile : High@L4
  18. Format settings : CABAC / 4 Ref Frames
  19. Format settings, CABAC : Yes
  20. Format settings, Reference frames : 4 frames
  21. Codec ID : V_MPEG4/ISO/AVC
  22. Duration : 56 min 15 s
  23. Bit rate mode : Variable
  24. Bit rate : 6 659 kb/s
  25. Maximum bit rate : 12.7 Mb/s
  26. Width : 1 920 pixels
  27. Height : 1 080 pixels
  28. Display aspect ratio : 16:9
  29. Frame rate mode : Constant
  30. Frame rate : 24.000 FPS
  31. Color space : YUV
  32. Chroma subsampling : 4:2:0
  33. Bit depth : 8 bits
  34. Scan type : Progressive
  35. Bits/(Pixel*Frame) : 0.134
  36. Stream size : 2.62 GiB (96%)
  37. Default : Yes
  38. Forced : No
  39. Color range : Limited
  40. Color primaries : BT.709
  41. Transfer characteristics : BT.709
  42. Matrix coefficients : BT.709

  43. Audio
  44. ID : 2
  45. Format : E-AC-3
  46. Format/Info : Enhanced AC-3
  47. Commercial name : Dolby Digital Plus
  48. Codec ID : A_EAC3
  49. Duration : 56 min 15 s
  50. Bit rate mode : Constant
  51. Bit rate : 256 kb/s
  52. Channel(s) : 6 channels
  53. Channel layout : L R C LFE Ls Rs
  54. Sampling rate : 48.0 kHz
  55. Frame rate : 31.250 FPS (1536 SPF)
  56. Compression mode : Lossy
  57. Stream size : 103 MiB (4%)
  58. Title : English [Dolby Digital Plus 5.1]
  59. Language : English
  60. Service kind : Complete Main
  61. Default : Yes
  62. Forced : No

  63. Text #1
  64. ID : 3
  65. Format : UTF-8
  66. Codec ID : S_TEXT/UTF8
  67. Codec ID/Info : UTF-8 Plain Text
  68. Duration : 54 min 21 s
  69. Bit rate : 51 b/s
  70. Frame rate : 0.205 FPS
  71. Count of elements : 667
  72. Stream size : 20.5 KiB (0%)
  73. Title : English [SDH]
  74. Language : English
  75. Default : No
  76. Forced : No

  77. Text #2
  78. ID : 4
  79. Format : UTF-8
  80. Codec ID : S_TEXT/UTF8
  81. Codec ID/Info : UTF-8 Plain Text
  82. Duration : 55 min 59 s
  83. Bit rate : 39 b/s
  84. Frame rate : 0.168 FPS
  85. Count of elements : 565
  86. Stream size : 16.3 KiB (0%)
  87. Title : 中文(简体)
  88. Language : Chinese
  89. Default : Yes
  90. Forced : No

  91. Text #3
  92. ID : 5
  93. Format : UTF-8
  94. Codec ID : S_TEXT/UTF8
  95. Codec ID/Info : UTF-8 Plain Text
  96. Duration : 55 min 59 s
  97. Bit rate : 39 b/s
  98. Frame rate : 0.168 FPS
  99. Count of elements : 565
  100. Stream size : 16.3 KiB (0%)
  101. Title : 中文 (繁體)
  102. Language : Chinese
  103. Default : No
  104. Forced : No

  105. Text #4
  106. ID : 6
  107. Format : UTF-8
  108. Codec ID : S_TEXT/UTF8
  109. Codec ID/Info : UTF-8 Plain Text
  110. Duration : 55 min 59 s
  111. Bit rate : 43 b/s
  112. Frame rate : 0.158 FPS
  113. Count of elements : 531
  114. Stream size : 18.0 KiB (0%)
  115. Title : Čeština
  116. Language : Czech
  117. Default : No
  118. Forced : No

  119. Text #5
  120. ID : 7
  121. Format : UTF-8
  122. Codec ID : S_TEXT/UTF8
  123. Codec ID/Info : UTF-8 Plain Text
  124. Duration : 55 min 59 s
  125. Bit rate : 40 b/s
  126. Frame rate : 0.168 FPS
  127. Count of elements : 565
  128. Stream size : 16.7 KiB (0%)
  129. Title : Dansk
  130. Language : Danish
  131. Default : No
  132. Forced : No

  133. Text #6
  134. ID : 8
  135. Format : UTF-8
  136. Codec ID : S_TEXT/UTF8
  137. Codec ID/Info : UTF-8 Plain Text
  138. Duration : 55 min 59 s
  139. Bit rate : 46 b/s
  140. Frame rate : 0.167 FPS
  141. Count of elements : 561
  142. Stream size : 19.0 KiB (0%)
  143. Title : Deutsch
  144. Language : German
  145. Default : No
  146. Forced : No

  147. Text #7
  148. ID : 9
  149. Format : UTF-8
  150. Codec ID : S_TEXT/UTF8
  151. Codec ID/Info : UTF-8 Plain Text
  152. Duration : 55 min 59 s
  153. Bit rate : 75 b/s
  154. Frame rate : 0.164 FPS
  155. Count of elements : 551
  156. Stream size : 30.9 KiB (0%)
  157. Title : Ελληνικά
  158. Language : Greek
  159. Default : No
  160. Forced : No

  161. Text #8
  162. ID : 10
  163. Format : UTF-8
  164. Codec ID : S_TEXT/UTF8
  165. Codec ID/Info : UTF-8 Plain Text
  166. Duration : 55 min 59 s
  167. Bit rate : 41 b/s
  168. Frame rate : 0.164 FPS
  169. Count of elements : 551
  170. Stream size : 17.0 KiB (0%)
  171. Title : Español (Latinoamérica)
  172. Language : Spanish
  173. Default : No
  174. Forced : No

  175. Text #9
  176. ID : 11
  177. Format : UTF-8
  178. Codec ID : S_TEXT/UTF8
  179. Codec ID/Info : UTF-8 Plain Text
  180. Duration : 55 min 59 s
  181. Bit rate : 42 b/s
  182. Frame rate : 0.166 FPS
  183. Count of elements : 559
  184. Stream size : 17.4 KiB (0%)
  185. Title : Español (España)
  186. Language : Spanish
  187. Default : No
  188. Forced : No

  189. Text #10
  190. ID : 12
  191. Format : UTF-8
  192. Codec ID : S_TEXT/UTF8
  193. Codec ID/Info : UTF-8 Plain Text
  194. Duration : 55 min 59 s
  195. Bit rate : 43 b/s
  196. Frame rate : 0.163 FPS
  197. Count of elements : 546
  198. Stream size : 17.7 KiB (0%)
  199. Title : Suomi
  200. Language : Finnish
  201. Default : No
  202. Forced : No

  203. Text #11
  204. ID : 13
  205. Format : UTF-8
  206. Codec ID : S_TEXT/UTF8
  207. Codec ID/Info : UTF-8 Plain Text
  208. Duration : 55 min 59 s
  209. Bit rate : 45 b/s
  210. Frame rate : 0.163 FPS
  211. Count of elements : 546
  212. Stream size : 18.5 KiB (0%)
  213. Title : Français (France)
  214. Language : French
  215. Default : No
  216. Forced : No

  217. Text #12
  218. ID : 14
  219. Format : UTF-8
  220. Codec ID : S_TEXT/UTF8
  221. Codec ID/Info : UTF-8 Plain Text
  222. Duration : 55 min 59 s
  223. Bit rate : 44 b/s
  224. Frame rate : 0.166 FPS
  225. Count of elements : 558
  226. Stream size : 18.4 KiB (0%)
  227. Title : Magyar
  228. Language : Hungarian
  229. Default : No
  230. Forced : No

  231. Text #13
  232. ID : 15
  233. Format : UTF-8
  234. Codec ID : S_TEXT/UTF8
  235. Codec ID/Info : UTF-8 Plain Text
  236. Duration : 55 min 59 s
  237. Bit rate : 41 b/s
  238. Frame rate : 0.162 FPS
  239. Count of elements : 543
  240. Stream size : 17.2 KiB (0%)
  241. Title : Italiano
  242. Language : Italian
  243. Default : No
  244. Forced : No

  245. Text #14
  246. ID : 16
  247. Format : UTF-8
  248. Codec ID : S_TEXT/UTF8
  249. Codec ID/Info : UTF-8 Plain Text
  250. Duration : 54 min 21 s
  251. Bit rate : 65 b/s
  252. Frame rate : 0.211 FPS
  253. Count of elements : 687
  254. Stream size : 25.9 KiB (0%)
  255. Title : 日本語 [SDH]
  256. Language : Japanese
  257. Default : No
  258. Forced : No

  259. Text #15
  260. ID : 17
  261. Format : UTF-8
  262. Codec ID : S_TEXT/UTF8
  263. Codec ID/Info : UTF-8 Plain Text
  264. Duration : 55 min 59 s
  265. Bit rate : 52 b/s
  266. Frame rate : 0.168 FPS
  267. Count of elements : 565
  268. Stream size : 21.3 KiB (0%)
  269. Title : 한국어
  270. Language : Korean
  271. Default : No
  272. Forced : No

  273. Text #16
  274. ID : 18
  275. Format : UTF-8
  276. Codec ID : S_TEXT/UTF8
  277. Codec ID/Info : UTF-8 Plain Text
  278. Duration : 55 min 59 s
  279. Bit rate : 41 b/s
  280. Frame rate : 0.130 FPS
  281. Count of elements : 437
  282. Stream size : 17.2 KiB (0%)
  283. Title : Nederlands
  284. Language : Dutch
  285. Default : No
  286. Forced : No

  287. Text #17
  288. ID : 19
  289. Format : UTF-8
  290. Codec ID : S_TEXT/UTF8
  291. Codec ID/Info : UTF-8 Plain Text
  292. Duration : 55 min 59 s
  293. Bit rate : 40 b/s
  294. Frame rate : 0.164 FPS
  295. Count of elements : 552
  296. Stream size : 16.7 KiB (0%)
  297. Title : Norsk
  298. Language : Norwegian
  299. Default : No
  300. Forced : No

  301. Text #18
  302. ID : 20
  303. Format : UTF-8
  304. Codec ID : S_TEXT/UTF8
  305. Codec ID/Info : UTF-8 Plain Text
  306. Duration : 55 min 59 s
  307. Bit rate : 42 b/s
  308. Frame rate : 0.161 FPS
  309. Count of elements : 541
  310. Stream size : 17.3 KiB (0%)
  311. Title : Polski
  312. Language : Polish
  313. Default : No
  314. Forced : No

  315. Text #19
  316. ID : 21
  317. Format : UTF-8
  318. Codec ID : S_TEXT/UTF8
  319. Codec ID/Info : UTF-8 Plain Text
  320. Duration : 54 min 21 s
  321. Bit rate : 42 b/s
  322. Frame rate : 0.169 FPS
  323. Count of elements : 550
  324. Stream size : 16.9 KiB (0%)
  325. Title : Português (Brasil)
  326. Language : Portuguese
  327. Default : No
  328. Forced : No

  329. Text #20
  330. ID : 22
  331. Format : UTF-8
  332. Codec ID : S_TEXT/UTF8
  333. Codec ID/Info : UTF-8 Plain Text
  334. Duration : 55 min 59 s
  335. Bit rate : 43 b/s
  336. Frame rate : 0.168 FPS
  337. Count of elements : 565
  338. Stream size : 17.7 KiB (0%)
  339. Title : Português (Portugal)
  340. Language : Portuguese
  341. Default : No
  342. Forced : No

  343. Text #21
  344. ID : 23
  345. Format : UTF-8
  346. Codec ID : S_TEXT/UTF8
  347. Codec ID/Info : UTF-8 Plain Text
  348. Duration : 55 min 59 s
  349. Bit rate : 42 b/s
  350. Frame rate : 0.136 FPS
  351. Count of elements : 458
  352. Stream size : 17.2 KiB (0%)
  353. Title : Română
  354. Language : Romanian
  355. Default : No
  356. Forced : No

  357. Text #22
  358. ID : 24
  359. Format : UTF-8
  360. Codec ID : S_TEXT/UTF8
  361. Codec ID/Info : UTF-8 Plain Text
  362. Duration : 55 min 59 s
  363. Bit rate : 40 b/s
  364. Frame rate : 0.167 FPS
  365. Count of elements : 561
  366. Stream size : 16.5 KiB (0%)
  367. Title : Slovenčina
  368. Language : Slovak
  369. Default : No
  370. Forced : No

  371. Text #23
  372. ID : 25
  373. Format : UTF-8
  374. Codec ID : S_TEXT/UTF8
  375. Codec ID/Info : UTF-8 Plain Text
  376. Duration : 55 min 59 s
  377. Bit rate : 41 b/s
  378. Frame rate : 0.153 FPS
  379. Count of elements : 515
  380. Stream size : 16.8 KiB (0%)
  381. Title : Svenska
  382. Language : Swedish
  383. Default : No
  384. Forced : No

  385. Text #24
  386. ID : 26
  387. Format : UTF-8
  388. Codec ID : S_TEXT/UTF8
  389. Codec ID/Info : UTF-8 Plain Text
  390. Duration : 55 min 59 s
  391. Bit rate : 43 b/s
  392. Frame rate : 0.167 FPS
  393. Count of elements : 561
  394. Stream size : 17.9 KiB (0%)
  395. Title : Türkçe
  396. Language : Turkish
  397. Default : No
  398. Forced : No

  399. Menu
  400. 00:00:09.083 : en:Recap
  401. 00:01:08.417 : en:Scene 1
  402. 00:02:33.042 : en:Intro
  403. 00:03:30.583 : en:Scene 2
  404. 00:54:43.500 : en:Credits
复制代码
[2024][美国][剧情]幕府将军 [第1-5集][中字].Shogun.S01.2024.1080p.DSNP.WEB-DL.DDP5.1.H.264-TAG 14.46GB-2.jpg
[2024][美国][剧情]幕府将军 [第1-5集][中字].Shogun.S01.2024.1080p.DSNP.WEB-DL.DDP5.1.H.264-TAG 14.46GB-3.jpg
[2024][美国][剧情]幕府将军 [第1-5集][中字].Shogun.S01.2024.1080p.DSNP.WEB-DL.DDP5.1.H.264-TAG 14.46GB-4.jpg















回复

使用道具 举报

蓝光币
1
发表于 2024-3-28 16:57:18 | 显示全部楼层
谢谢楼主
回复

使用道具 举报

蓝光币
387
发表于 2024-4-6 15:11:10 | 显示全部楼层

楼主太厉害了!楼主,电影应该很好看我觉得蓝光电影网真是个好地方!
回复

使用道具 举报

蓝光币
94
发表于 2024-4-13 17:51:03 | 显示全部楼层

楼主,大恩不言谢了!蓝光电影网是最棒的!
回复

使用道具 举报

蓝光币
164
发表于 2024-4-23 16:26:10 | 显示全部楼层

论坛不能没有像楼主这样的人才啊!我会一直支持蓝光电影网。
回复

使用道具 举报

蓝光币
3
发表于 2024-4-24 17:15:12 | 显示全部楼层

楼主太厉害了!楼主,电影应该很好看我觉得蓝光电影网真是个好地方!
回复

使用道具 举报

蓝光币
49
发表于 2024-4-25 19:10:13 | 显示全部楼层
楼主发贴辛苦了,谢谢楼主分享!我觉得蓝光电影网是注册对了!
回复

使用道具 举报

蓝光币
3
发表于 2024-4-25 23:00:49 | 显示全部楼层

其实我一直觉得楼主的品味不错!呵呵!蓝光电影网太棒了!
回复

使用道具 举报

懒得打字嘛,点击右侧快捷回复 【右侧内容,后台自定义】
您需要登录后才可以回帖 登录 | 立即加入

本版积分规则

Archiver| |网站地图

Copyright © 2024 Comsenz Inc. Powered by 蓝光电影网

本站内容由用户自主分享和转载自互联网,转载目的在于传递更多信息,并不代表本网赞同其观点和对其真实性负责。

如有侵权、违反国家法律政策行为,请联系我们,我们会第一时间及时清除和处理!

举报反馈邮箱:4k1080.com@gmail.com

快速回复 返回顶部 返回列表