找回密码

查看: 547|回复: 5

[美国] 席琳迪翁拉斯维加斯2007演唱会-全新的一天[内封中英字幕].Celine.Dion.Live.in.Las.Vegas.A.New.Day.(2007).BluRay.1080p.x264.DTS-HD 21.86GB

[复制链接]
蓝光币
1925
发表于 2024-3-24 11:05:59 | 显示全部楼层 |阅读模式
席琳迪翁拉斯维加斯2007演唱会-全新的一天[内封中英字幕].Celine.Dion.Live.in.Las.Vegas.A.New.Day.(2007).BluRay.1080p.x264.DTS-HD 21.86GB-1.jpeg

Celine Dion is back in her opening night live concert in Las Vegas, where she will be performing 200 shows a year for the next 3 years in a concert hall built especially for her.
  回首03年的一全年,A New Day...场场爆满的成功必定是今年全部文娱圈里最具有里程碑意义的事务。由天后Celine领衔,Dragone导演,克莱斯勒援助,在拉斯维加斯凯撒宫殿古罗马圆形戏院上演的A New Day... 在3年表演旅程的头9 个月就由于其空前的成功,赢得了响亮的名声,建立了品牌,成为了来拉斯维加斯必看的表演。
  从03年3月表演起头以来, 我们驱逐了从全美和全天下各地一批批的观众来欣赏体验我们由歌曲、舞蹈和戏剧革新完善组合的表演, "Concerts West的首席履行主座John Meglen说:“我们感激那些音乐爱好者的热情支持,并将继续尽力来延续A New Day...这个获得惊人成功的神话。”
  "凯撒宫殿总是同天下级文娱挂钩",凯撒宫殿的主席Mark Juliano说 "这类传统已经过于Concerts West 和 Celine Dion 跟我们的合作成显得加倍名至实归。恺撒皇宫已经成为了全美最有影响力和吸引力的表演舞台之一"
  下面是03年全部表演和Celine Dion小我获得的成就
  Fans:144场演进场场爆满,跨越六十万观众亲临现场旁观。
  Celebrities:各界名流纷纷恭维,包括:Oprah Winfrey, Justin Timberlake, Catherine Zeta-Jones, 诺德·施瓦辛格,Britney Spears 、shania twain、 Donald Trump…
  Emmy奖提名:CBS播出的Celine in Las Vegas: Opening Night Live获得艾美奖提名,这对一个风行音乐电视特辑来说史无前例。
  Billboard #1演进场所:恺撒皇宫被通告牌杂志选为年度第一的演进场所,(在5000多个演进场地把的头抽)。
  Billboard #2票房:144场表演票房净收$80.5 MILLION,只落后Bruce Springsteen的$115.9 million,远远跨越Rolling Stones ($38.5 million), Shania Twain ($40.8 million) and Cher ($68.2 million)。
  NO. 2 Promoter :由于A NEW DAY……的成功,表演推行公司AEG/Concerts West,在Billboard杂志6月的表演推行公司排行榜中名列#2。
  Billboard #2 年度AC歌手:Celine今年有6首歌曲打入成人抒怀榜,HYEBIL获得年度#8,Celine今年排在老牌歌手Phil Collins 以后是最受接待AC歌手的第二名。
  一项全美音乐奖:Celine Dion获得了今年度AMA大奖的最好成人抒怀女歌手。

  1. Video
  2. ID : 1
  3. Format : VC-1
  4. Format profile : Advanced@L3
  5. Codec ID : V_MS/VFW/FOURCC / WVC1
  6. Codec ID/Hint : Microsoft
  7. Duration : 1 h 33 min
  8. Bit rate : 25.2 Mb/s
  9. Width : 1 920 pixels
  10. Height : 1 080 pixels
  11. Display aspect ratio : 16:9
  12. Frame rate mode : Constant
  13. Frame rate : 29.970 (30000/1001) FPS
  14. Color space : YUV
  15. Chroma subsampling : 4:2:0
  16. Bit depth : 8 bits
  17. Scan type : Interlaced
  18. Scan order : Top Field First
  19. Compression mode : Lossy
  20. Bits/(Pixel*Frame) : 0.406
  21. Stream size : 16.4 GiB (75%)
  22. Default : Yes
  23. Forced : No

  24. Audio
  25. ID : 2
  26. Format : MLP FBA
  27. Format/Info : Meridian Lossless Packing FBA
  28. Commercial name : Dolby TrueHD
  29. Codec ID : A_TRUEHD
  30. Duration : 1 h 33 min
  31. Bit rate mode : Variable
  32. Bit rate : 8 328 kb/s
  33. Maximum bit rate : 9 702 kb/s
  34. Channel(s) : 6 channels
  35. Channel layout : L R C LFE Ls Rs
  36. Sampling rate : 96.0 kHz
  37. Frame rate : 1 200.000 FPS (80 SPF)
  38. Compression mode : Lossless
  39. Delay relative to video : 33 ms
  40. Stream size : 5.42 GiB (25%)
  41. Title : 英语
  42. Language : English
  43. Default : Yes
  44. Forced : No

  45. Text #1
  46. ID : 3
  47. Format : PGS
  48. Muxing mode : zlib
  49. Codec ID : S_HDMV/PGS
  50. Codec ID/Info : Picture based subtitle format used on BDs/HD-DVDs
  51. Duration : 1 h 24 min
  52. Bit rate : 8 522 b/s
  53. Frame rate : 0.158 FPS
  54. Count of elements : 800
  55. Stream size : 5.16 MiB (0%)
  56. Title : 简中字幕
  57. Language : Chinese
  58. Default : Yes
  59. Forced : No

  60. Text #2
  61. ID : 4
  62. Format : PGS
  63. Muxing mode : zlib
  64. Codec ID : S_HDMV/PGS
  65. Codec ID/Info : Picture based subtitle format used on BDs/HD-DVDs
  66. Duration : 1 h 10 min
  67. Bit rate : 2 401 b/s
  68. Frame rate : 0.044 FPS
  69. Count of elements : 185
  70. Stream size : 1.22 MiB (0%)
  71. Title : 英笔墨幕
  72. Language : English
  73. Default : No
  74. Forced : No
复制代码














回复

使用道具 举报

蓝光币
4
发表于 2024-3-28 10:52:15 | 显示全部楼层
很喜欢的歌手!
回复

使用道具 举报

蓝光币
1
发表于 2024-3-29 06:17:32 | 显示全部楼层
:time::o:D
回复

使用道具 举报

蓝光币
1
发表于 2024-4-3 22:21:30 | 显示全部楼层
最喜欢的女歌手之一
回复

使用道具 举报

蓝光币
114
发表于 2024-4-8 12:20:26 | 显示全部楼层
气场很大!
回复

使用道具 举报

蓝光币
62
发表于 6 天前 | 显示全部楼层
楼主发贴辛苦了,谢谢楼主分享!我觉得蓝光电影网是注册对了!
回复

使用道具 举报

懒得打字嘛,点击右侧快捷回复 【右侧内容,后台自定义】
您需要登录后才可以回帖 登录 | 立即加入

本版积分规则

Archiver| |网站地图

Copyright © 2024 Comsenz Inc. Powered by 蓝光电影网

本站内容由用户自主分享和转载自互联网,转载目的在于传递更多信息,并不代表本网赞同其观点和对其真实性负责。

如有侵权、违反国家法律政策行为,请联系我们,我们会第一时间及时清除和处理!

举报反馈邮箱:4k1080.com@gmail.com

快速回复 返回顶部 返回列表