找回密码

查看: 897|回复: 4

[欧洲] 阿黛尔伦敦爱尔伯特音乐厅演唱会[内封中字]Adele.Live.at.the.Royal.Albert.Hall.2011.1080i.BluRay.REMUX.DTS-HD.MA.5.1.H.264-Happy 20.63GB

[复制链接]
蓝光币
2048
发表于 2024-3-24 11:24:57 | 显示全部楼层 |阅读模式
阿黛尔伦敦爱尔伯特音乐厅演唱会[内封中字]Adele.Live.at.the.Royal.Albert.Hall.2011.1080i.BluRay.REMUX.DTS-HD.MA.5.1.H.264-Happy 20.63GB-1.jpg

◎译  名 阿黛尔伦敦爱尔伯特音乐厅演唱会 / Adele伦敦爱尔伯特音乐厅演唱会
◎片  名 Adele Live at the Royal Albert Hall
◎年  代 2011
◎产  地 英国
◎类  别 记载片 / 音乐
◎语  言 英语
◎上映日期 2011-11-29(美国)
◎豆瓣评星 ★★★★★
◎豆瓣评分 9.7/10 from 72,591,034 users
◎豆瓣链接 https://movie.douban.com/subject/7052699/
◎片  长 90分钟
◎演  员 阿黛尔 / Adele

◎简  介 

  Adele将那些心碎的回忆,化为纠结民气的浪漫旋律,从自弹自唱的宅女摇身一酿成为叱吒风云的风行女王。2011年9月22日,Adele首度登上全球歌者的终极圣殿——英国伦敦皇家爱尔伯特音乐厅,《Live At The Royal Albert Hall》完整记录了这一票难求的演唱会完整实况。
  全场曲目列表以下:
  1.Hometown Glory
  2.I'll Be Waiting
  3.Don't You Remember
  4.Turning Tables
  5.Set Fire To The Rain
  6.If It Hadn't Been For Love
  7.My Same
  8.Take It All
  9.Rumour Has It
  10.Right As Rain
  11.One & Only
  12.Lovesong
  13.Chasing Pavements
  14.I Can't Make You Love Me
  15.Make You Feel My Love
  16.Someone Like You
  17.Rolling In The Deep

  1. Video
  2. ID                             : 1
  3. Format                         : AVC
  4. Format/Info                    : Advanced Video Codec
  5. Format profile                 : High@L4.1
  6. Format settings                : CABAC / 4 Ref Frames
  7. Format settings, CABAC         : Yes
  8. Format settings, Reference fra : 4 frames
  9. Format settings, GOP           : M=3, N=24
  10. Codec ID                       : V_MPEG4/ISO/AVC
  11. Duration                       : 1 h 39 min
  12. Bit rate mode                  : Variable
  13. Bit rate                       : 26.9 Mb/s
  14. Maximum bit rate               : 35.0 Mb/s
  15. Width                          : 1 920 pixels
  16. Height                         : 1 080 pixels
  17. Display aspect ratio           : 16:9
  18. Frame rate mode                : Constant
  19. Frame rate                     : 29.970 (30000/1001) FPS
  20. Standard                       : NTSC
  21. Color space                    : YUV
  22. Chroma subsampling             : 4:2:0
  23. Bit depth                      : 8 bits
  24. Scan type                      : MBAFF
  25. Bits/(Pixel*Frame)             : 0.433
  26. Stream size                    : 18.7 GiB (91%)
  27. Default                        : Yes
  28. Forced                         : No
  29. Color range                    : Limited
  30. Color primaries                : BT.709
  31. Transfer characteristics       : BT.709
  32. Matrix coefficients            : BT.709

  33. Audio
  34. ID                             : 2
  35. Format                         : DTS XLL
  36. Format/Info                    : Digital Theater Systems
  37. Commercial name                : DTS-HD Master Audio
  38. Codec ID                       : A_DTS
  39. Duration                       : 1 h 39 min
  40. Bit rate mode                  : Variable
  41. Bit rate                       : 2 802 kb/s
  42. Channel(s)                     : 6 channels
  43. Channel layout                 : C L R Ls Rs LFE
  44. Sampling rate                  : 48.0 kHz
  45. Frame rate                     : 93.750 FPS (512 SPF)
  46. Bit depth                      : 16 bits
  47. Compression mode               : Lossless
  48. Stream size                    : 1.95 GiB (9%)
  49. Language                       : English
  50. Default                        : Yes
  51. Forced                         : No

  52. Text
  53. ID                             : 3
  54. Format                         : UTF-8
  55. Codec ID                       : S_TEXT/UTF8
  56. Codec ID/Info                  : UTF-8 Plain Text
  57. Duration                       : 1 h 39 min
  58. Bit rate                       : 137 b/s
  59. Frame rate                     : 0.214 FPS
  60. Count of elements              : 1279
  61. Stream size                    : 100 KiB (0%)
  62. Language                       : Chinese
  63. Default                        : Yes
  64. Forced                         : No

  65. Menu
  66. 00:06:05.000                   : en:I Will Be Waiting /《我会一向等待》
  67. 00:10:58.000                   : en:Don't You Remember /《无爱的挽歌》
  68. 00:17:16.000                   : en:Turning Tables /《扭转之桌》
  69. 00:21:23.000                   : en:Set The Fire To The Rain /《以泪焚情》
  70. 00:27:49.000                   : en:If It Hadn t Been For Love /《假如不是为了爱》
  71. 00:33:28.000                   : en:My Same /《仍然是朋友》
  72. 00:38:40.000                   : en:Take It All /《让一切都带走》
  73. 00:43:47.000                   : en:Rumour Has It /《蜚语无忌》
  74. 00:47:39.000                   : en:Right As Rain/《风平浪静》
  75. 00:52:46.000                   : en:One & Only /《爱的唯一》
  76. 01:00:55.000                   : en:Lovesong /《爱之歌》
  77. 01:07:25.000                   : en:Chasing Pavements /《追逐》
  78. 01:12:03.000                   : en:I can't Make You Love Me /《力所不及》
  79. 01:17:55.000                   : en:Make You Feel My Love /《让你感应我的爱》
  80. 01:26:39.000                   : en:Someone Like You /《像你的他》
  81. 01:33:08.000                   : en:Rolling In The Deep /《坠入深渊》
复制代码
阿黛尔伦敦爱尔伯特音乐厅演唱会[内封中字]Adele.Live.at.the.Royal.Albert.Hall.2011.1080i.BluRay.REMUX.DTS-HD.MA.5.1.H.264-Happy 20.63GB-2.png







回复

使用道具 举报

蓝光币
228
发表于 2024-3-25 08:19:20 | 显示全部楼层
楼主发贴辛苦了,谢谢楼主分享!我觉得蓝光电影网是注册对了!
回复

使用道具 举报

蓝光币
348
发表于 2024-4-1 20:41:16 | 显示全部楼层

楼主发贴辛苦了,谢谢楼主分享!
回复

使用道具 举报

蓝光币
60
发表于 2024-5-13 21:59:33 | 显示全部楼层
      那个时候知道了阿黛勒和泰勒斯威夫特。
回复

使用道具 举报

蓝光币
138
发表于 2024-5-21 14:54:06 | 显示全部楼层
发贴辛苦了,谢谢楼主分享!
回复

使用道具 举报

懒得打字嘛,点击右侧快捷回复 【右侧内容,后台自定义】
您需要登录后才可以回帖 登录 | 立即加入

本版积分规则

Archiver| |网站地图

Copyright © 2024 Comsenz Inc. Powered by 蓝光电影网

本站内容由用户自主分享和转载自互联网,转载目的在于传递更多信息,并不代表本网赞同其观点和对其真实性负责。

如有侵权、违反国家法律政策行为,请联系我们,我们会第一时间及时清除和处理!

举报反馈邮箱:4k1080.com@gmail.com

快速回复 返回顶部 返回列表