找回密码

查看: 498|回复: 1

[2024][日本][剧情]我亲爱的妖怪女友[全8集][简繁英字幕].My.Undead.Yokai.Girlfriend.S01.2024.2160p.AMZN.WEB-DL.DDP.5.1.H.265-TAG 30.28GB

[复制链接]
蓝光币
1917
发表于 2024-3-24 13:30:53 | 显示全部楼层 |阅读模式
[2024][日本][剧情]我亲爱的魔鬼女友[全8集][简繁英字幕].My.Undead.Yokai.Girlfriend.S01.2024.2160p.AMZN.WEB-DL.DDP.5.1.H.265-TAG 30.28GB-1.png

◎标  题 我亲爱的魔鬼女友
◎译  名 My Undead Yokai Girlfriend / My Lovely Yokai Girlfriend
◎片  名 僕の愛しい魔鬼ガールフレンド
◎年  代 2024
◎产  地 日本
◎类  别 剧情 / 笑剧 / 恋爱 / 奇异
◎语  言 日语
◎IMDb链接 https://www.imdb.com/title/tt19265192/
◎豆瓣链接 https://movie.douban.com/subject/35840422/
◎导  演 三木孝浩 Takahiro Miki
◎演  员 佐野勇斗 Sano Hayato
      吉川爱 Ai Yoshikawa
      堀田世纪 Anthony
      吉柳咲良 Sakura Kiryu
      平祐奈 Yuna Taira
      栗原类 Louis Kurihara
      石井杏奈 Ishii Anna
      樱田通 Dori Sakurada
      加藤谅 Ryô Katô
      望月步 Mochizuki Ayumu
      齐藤渚 Nagisa Saitō
      板谷由夏 Yuka Itaya
      夏木真理 Mari Natsuki
      竹中直人 Naoto Takenaka
      桥本润 Jun Hashimoto
      真飞圣 Sei Matobu
      野间口彻 Tôru Nomaguchi
      袴田吉彦 Yoshihiko Hakamada
      滨田麻里 Mari Hamada
      北村有起哉 Yukiya Kitamura
      反町隆史 Takashi Sorimachi

◎简  介
    该剧聚焦日本的“魔鬼”和“御宅族”文化。佐野勇斗饰演想要女朋友的游戏宅仆人公犬饲忠士(昵称小八),吉川爱饰演女配角、美丽的魔鬼女孩Izzy。这是一部既有战役行动,又有推理,怪异的“魔鬼恋爱笑剧”。

  1. ##### MediaInfo ######
  2. General
  3. Unique ID : 320852396328270882749158275264146764430 (0xF161EC7CF525EA9A03ABD6297106F28E)
  4. Complete name : My.Undead.Yokai.Girlfriend.S01E01.Meet.Creepy-Cute.2160p.AMZN.WEB-DL.DDP.5.1.H.265-TAG.mkv
  5. Duration : 37 min 41 s
  6. Overall bit rate : 15.6 Mb/s

  7. Video
  8. ID : 1
  9. Format : HEVC
  10. Format/Info : High Efficiency Video Coding
  11. Format profile : Main@L5@Main
  12. Codec ID : V_MPEGH/ISO/HEVC
  13. Duration : 37 min 41 s
  14. Bit rate : 14.9 Mb/s
  15. Width : 3 840 pixels
  16. Height : 2 160 pixels
  17. Display aspect ratio : 16:9
  18. Frame rate mode : Constant
  19. Frame rate : 24.000 FPS
  20. Color space : YUV
  21. Chroma subsampling : 4:2:0
  22. Bit depth : 8 bits
  23. Bits/(Pixel*Frame) : 0.075
  24. Stream size : 3.93 GiB (96%)
  25. Language : Japanese
  26. Default : Yes
  27. Forced : No
  28. Color range : Limited
  29. Color primaries : BT.709
  30. Transfer characteristics : BT.709
  31. Matrix coefficients : BT.709

  32. Audio
  33. ID : 2
  34. Format : E-AC-3
  35. Format/Info : Enhanced AC-3
  36. Commercial name : Dolby Digital Plus
  37. Codec ID : A_EAC3
  38. Duration : 37 min 41 s
  39. Bit rate mode : Constant
  40. Bit rate : 640 kb/s
  41. Channel(s) : 6 channels
  42. Channel layout : L R C LFE Ls Rs
  43. Sampling rate : 48.0 kHz
  44. Frame rate : 31.250 FPS (1536 SPF)
  45. Compression mode : Lossy
  46. Stream size : 173 MiB (4%)
  47. Title : Japan
  48. Language : Japanese
  49. Service kind : Complete Main
  50. Default : Yes
  51. Forced : No

  52. Text #1
  53. ID : 3
  54. Format : UTF-8
  55. Codec ID : S_TEXT/UTF8
  56. Codec ID/Info : UTF-8 Plain Text
  57. Duration : 37 min 22 s
  58. Bit rate : 80 b/s
  59. Frame rate : 0.277 FPS
  60. Count of elements : 621
  61. Stream size : 22.1 KiB (0%)
  62. Title : Japan (SDH)
  63. Language : Japanese
  64. Default : No
  65. Forced : No

  66. Text #2
  67. ID : 4
  68. Format : UTF-8
  69. Codec ID : S_TEXT/UTF8
  70. Codec ID/Info : UTF-8 Plain Text
  71. Duration : 37 min 20 s
  72. Bit rate : 54 b/s
  73. Frame rate : 0.230 FPS
  74. Count of elements : 516
  75. Stream size : 14.9 KiB (0%)
  76. Title : Simplified
  77. Language : Chinese
  78. Default : No
  79. Forced : No

  80. Text #3
  81. ID : 5
  82. Format : UTF-8
  83. Codec ID : S_TEXT/UTF8
  84. Codec ID/Info : UTF-8 Plain Text
  85. Duration : 37 min 20 s
  86. Bit rate : 53 b/s
  87. Frame rate : 0.230 FPS
  88. Count of elements : 515
  89. Stream size : 14.6 KiB (0%)
  90. Title : Traditional
  91. Language : Chinese
  92. Default : No
  93. Forced : No

  94. Text #4
  95. ID : 6
  96. Format : UTF-8
  97. Codec ID : S_TEXT/UTF8
  98. Codec ID/Info : UTF-8 Plain Text
  99. Duration : 36 min 33 s
  100. Bit rate : 55 b/s
  101. Frame rate : 0.230 FPS
  102. Count of elements : 505
  103. Stream size : 14.8 KiB (0%)
  104. Language : English
  105. Default : No
  106. Forced : No

  107. Text #5
  108. ID : 7
  109. Format : UTF-8
  110. Codec ID : S_TEXT/UTF8
  111. Codec ID/Info : UTF-8 Plain Text
  112. Duration : 37 min 20 s
  113. Bit rate : 128 b/s
  114. Frame rate : 0.230 FPS
  115. Count of elements : 516
  116. Stream size : 35.1 KiB (0%)
  117. Title : India
  118. Language : Hindi
  119. Default : No
  120. Forced : No

  121. Text #6
  122. ID : 8
  123. Format : UTF-8
  124. Codec ID : S_TEXT/UTF8
  125. Codec ID/Info : UTF-8 Plain Text
  126. Duration : 37 min 20 s
  127. Bit rate : 51 b/s
  128. Frame rate : 0.230 FPS
  129. Count of elements : 515
  130. Stream size : 14.1 KiB (0%)
  131. Language : Indonesian
  132. Default : No
  133. Forced : No

  134. Text #7
  135. ID : 9
  136. Format : UTF-8
  137. Codec ID : S_TEXT/UTF8
  138. Codec ID/Info : UTF-8 Plain Text
  139. Duration : 37 min 20 s
  140. Bit rate : 55 b/s
  141. Frame rate : 0.230 FPS
  142. Count of elements : 516
  143. Stream size : 15.1 KiB (0%)
  144. Title : South Korea
  145. Language : Korean
  146. Default : No
  147. Forced : No

  148. Text #8
  149. ID : 10
  150. Format : UTF-8
  151. Codec ID : S_TEXT/UTF8
  152. Codec ID/Info : UTF-8 Plain Text
  153. Duration : 37 min 20 s
  154. Bit rate : 57 b/s
  155. Frame rate : 0.229 FPS
  156. Count of elements : 514
  157. Stream size : 15.6 KiB (0%)
  158. Title : Malaysia
  159. Language : Malay
  160. Default : No
  161. Forced : No

  162. Text #9
  163. ID : 11
  164. Format : UTF-8
  165. Codec ID : S_TEXT/UTF8
  166. Codec ID/Info : UTF-8 Plain Text
  167. Duration : 37 min 20 s
  168. Bit rate : 128 b/s
  169. Frame rate : 0.230 FPS
  170. Count of elements : 516
  171. Stream size : 35.3 KiB (0%)
  172. Language : Thai
  173. Default : No
  174. Forced : No
复制代码
[2024][日本][剧情]我亲爱的魔鬼女友[全8集][简繁英字幕].My.Undead.Yokai.Girlfriend.S01.2024.2160p.AMZN.WEB-DL.DDP.5.1.H.265-TAG 30.28GB-3.png [2024][日本][剧情]我亲爱的魔鬼女友[全8集][简繁英字幕].My.Undead.Yokai.Girlfriend.S01.2024.2160p.AMZN.WEB-DL.DDP.5.1.H.265-TAG 30.28GB-4.png [2024][日本][剧情]我亲爱的魔鬼女友[全8集][简繁英字幕].My.Undead.Yokai.Girlfriend.S01.2024.2160p.AMZN.WEB-DL.DDP.5.1.H.265-TAG 30.28GB-5.png [2024][日本][剧情]我亲爱的魔鬼女友[全8集][简繁英字幕].My.Undead.Yokai.Girlfriend.S01.2024.2160p.AMZN.WEB-DL.DDP.5.1.H.265-TAG 30.28GB-6.png [2024][日本][剧情]我亲爱的魔鬼女友[全8集][简繁英字幕].My.Undead.Yokai.Girlfriend.S01.2024.2160p.AMZN.WEB-DL.DDP.5.1.H.265-TAG 30.28GB-7.png [2024][日本][剧情]我亲爱的魔鬼女友[全8集][简繁英字幕].My.Undead.Yokai.Girlfriend.S01.2024.2160p.AMZN.WEB-DL.DDP.5.1.H.265-TAG 30.28GB-8.png












回复

使用道具 举报

蓝光币
115
发表于 2024-3-25 13:36:12 | 显示全部楼层
楼主发贴辛苦了,谢谢楼主分享!我觉得蓝光电影网是注册对了!
回复

使用道具 举报

懒得打字嘛,点击右侧快捷回复 【右侧内容,后台自定义】
您需要登录后才可以回帖 登录 | 立即加入

本版积分规则

Archiver| |网站地图

Copyright © 2024 Comsenz Inc. Powered by 蓝光电影网

本站内容由用户自主分享和转载自互联网,转载目的在于传递更多信息,并不代表本网赞同其观点和对其真实性负责。

如有侵权、违反国家法律政策行为,请联系我们,我们会第一时间及时清除和处理!

举报反馈邮箱:4k1080.com@gmail.com

快速回复 返回顶部 返回列表