找回密码

查看: 494|回复: 2

[战争] 战争子午线 [国语无字].The.Meridian.of.War.1990.1080p.WEB-DL.H.264.AAC-TAG 2.04GB

[复制链接]
蓝光币
1917
发表于 2024-3-26 20:48:23 | 显示全部楼层 |阅读模式
战争子午线 [国语无字].The.Meridian.of.War.1990.1080p.WEB-DL.H.264.AAC-TAG 2.04GB-1.jpg

◎译  名 The Meridian of War
◎片  名 战争子午线
◎年  代 1990
◎产  地 中国大陆
◎类  别 剧情 / 战争
◎语  言 汉语普通话
◎上映日期 1990
◎IMDb评星  ★★★★★★★✦☆☆
◎IMDb评分  7.3/10 from 17 users
◎IMDb链接  https://www.imdb.com/title/tt2626746/
◎豆瓣评星 ★★★★✦
◎豆瓣评分 8.7/10 from 3,282 users
◎豆瓣链接 https://movie.douban.com/subject/1464535/
◎片  长 92分钟
◎导  演 冯小宁 / Xiaoning Feng
◎演  员 富大龙 / Dalong Fu | 饰 老兵
      江韵辉 / Yunhui Jiang
      牛萌萌 / Mengmeng Niu
◎编  剧 冯小宁 / Xiaoning Feng
◎音  乐 关峡 / Xia Guan
◎摄  影 张国庆 / Guoqing Zhang
◎服  装 刘建华 / Jianhua Liu
◎其  它 江韵辉 / Yunhui Jiang

◎简  介 

  故事发生在1942年11月的严冬,陪伴着承平洋战争的爆发,天下反法西斯战争进入了新的阶段,而抗日战争也进入最为关键同时也是最为艰辛的期间。为了剿灭敌后抗日按照地的有生气力,日军向华北地域策动51大扫荡。由于缺少医护职员,中共方面募得13名爱国青年前往平西抗日按照地,成果在途中遭到日军战役机的无情轰炸和扫射,终极只要一位女护士活了下来。大人们倒在了血泊中,陪伴着烽火诞生的孩子们不能不拿起手中的枪。孩子们忖量着妈妈的臂弯,祈祷战争的到来。他们用稚嫩天真的双眼观望着这个伤亡枕藉的天下,更无法看着自己的鲜血迸出染红天空。
  “沿长城向西”,是孩子们寻觅按照地和希望的唯一支柱……

◎获奖情况 

  第11届中国电影金鸡奖 (1991)
  评委会出格奖 出格影人奖 冯小宁
  最好摄影(提名) 张国庆
  最好音乐(提名) 关峡

◎幕后揭秘

  影片是著名导演冯小宁所执导的一部抗日题材作品,该片经过对孩子们间接投入战役的描画,深入表示了战争的残暴性,衬托出悲壮而高昂的民族精神,激发人们对“战争与战争”这一人类文化永久主题的深层思考。该片经过魁首与儿童、母亲与孩子的论述,揭露了战争与人性的关系,并摆脱了以往儿童人物形象在战争片中“反动小豪杰”的创作窠臼,令其更易为小观众所了解和接管。该片获1990年中国电影金鸡奖导表演格奖,第4届东京国际儿童电影节日本电影批评家奖,第2届日本京都国际儿童电影节金奖。

  1. General
  2. Complete name : H:\Download\[Movie]\战争子午线.The Meridian of War.1990.1080p.WEB-DL.H264.AAC.mp4
  3. Format : MPEG-4
  4. Format profile : Base Media
  5. Codec ID : isom (isom/iso2/avc1/mp41)
  6. File size : 2.04 GiB
  7. Duration : 1 h 32 min
  8. Overall bit rate mode : Variable
  9. Overall bit rate : 3 147 kb/s
  10. Encoded date : UTC 1970-01-01 00:00:00
  11. Tagged date : UTC 1970-01-01 00:00:00
  12. Writing application : Lavf52.84.0

  13. Video
  14. ID : 1
  15. Format : AVC
  16. Format/Info : Advanced Video Codec
  17. Format profile : High@L5
  18. Format settings : CABAC / 5 Ref Frames
  19. Format settings, CABAC : Yes
  20. Format settings, Reference fra : 5 frames
  21. Format settings, GOP : M=4, N=13
  22. Codec ID : avc1
  23. Codec ID/Info : Advanced Video Coding
  24. Duration : 1 h 32 min
  25. Bit rate : 3 000 kb/s
  26. Width : 1 920 pixels
  27. Height : 1 080 pixels
  28. Display aspect ratio : 16:9
  29. Frame rate mode : Constant
  30. Frame rate : 25.000 FPS
  31. Color space : YUV
  32. Chroma subsampling : 4:2:0
  33. Bit depth : 8 bits
  34. Scan type : Progressive
  35. Bits/(Pixel*Frame) : 0.058
  36. Stream size : 1.94 GiB (95%)
  37. Writing library : x264 core 110
  38. Encoding settings : cabac=1 / ref=5 / deblock=1:0:0 / analyse=0x3:0x133 / me=hex / subme=8 / psy=1 / psy_rd=1.00:0.00 / mixed_ref=1 / me_range=16 / chroma_me=0 / trellis=1 / 8x8dct=1 / cqm=0 / deadzone=21,11 / fast_pskip=1 / chroma_qp_offset=-2 / threads=16 / sliced_threads=0 / nr=0 / decimate=1 / interlaced=0 / constrained_intra=0 / bframes=3 / b_pyramid=0 / b_adapt=0 / b_bias=0 / direct=3 / weightb=1 / open_gop=0 / weightp=0 / keyint=13 / keyint_min=7 / scenecut=0 / intra_refresh=0 / rc_lookahead=13 / rc=abr / mbtree=1 / bitrate=3000 / ratetol=1.0 / qcomp=0.00 / qpmin=10 / qpmax=51 / qpstep=4 / ip_ratio=1.41 / aq=1:1.00
  39. Encoded date : UTC 1970-01-01 00:00:00
  40. Tagged date : UTC 1970-01-01 00:00:00
  41. Codec configuration box : avcC

  42. Audio
  43. ID : 2
  44. Format : AAC LC SBR
  45. Format/Info : Advanced Audio Codec Low Complexity with Spectral Band Replication
  46. Commercial name : HE-AAC
  47. Format settings : Explicit
  48. Codec ID : mp4a-40-2
  49. Duration : 1 h 32 min
  50. Duration_LastFrame : -21 ms
  51. Bit rate mode : Variable
  52. Bit rate : 139 kb/s
  53. Channel(s) : 2 channels
  54. Channel layout : L R
  55. Sampling rate : 48.0 kHz
  56. Frame rate : 23.438 FPS (2048 SPF)
  57. Compression mode : Lossy
  58. Stream size : 92.3 MiB (4%)
  59. Encoded date : UTC 1970-01-01 00:00:00
  60. Tagged date : UTC 1970-01-01 00:00:00
复制代码
战争子午线 [国语无字].The.Meridian.of.War.1990.1080p.WEB-DL.H.264.AAC-TAG 2.04GB-2.jpg









回复

使用道具 举报

蓝光币
572
发表于 2024-3-27 21:10:05 | 显示全部楼层
楼主发贴辛苦了,谢谢楼主分享!我觉得蓝光电影网是注册对了!
回复

使用道具 举报

蓝光币
1
发表于 2024-4-10 15:19:34 | 显示全部楼层
楼主发贴辛苦了,谢谢楼主分享!
回复

使用道具 举报

懒得打字嘛,点击右侧快捷回复 【右侧内容,后台自定义】
您需要登录后才可以回帖 登录 | 立即加入

本版积分规则

Archiver| |网站地图

Copyright © 2024 Comsenz Inc. Powered by 蓝光电影网

本站内容由用户自主分享和转载自互联网,转载目的在于传递更多信息,并不代表本网赞同其观点和对其真实性负责。

如有侵权、违反国家法律政策行为,请联系我们,我们会第一时间及时清除和处理!

举报反馈邮箱:4k1080.com@gmail.com

快速回复 返回顶部 返回列表