找回密码

查看: 699|回复: 1

[剧情] 日为吾兄月为吾妹 Brother.Sun.Sister.Moon.1972.1080p.AMZN.WEBRip.DDP2.0.x264-SbR 12.19GB

[复制链接]
蓝光币
2048
发表于 2024-3-26 21:09:38 | 显示全部楼层 |阅读模式
日为吾兄月为吾妹 Brother.Sun.Sister.Moon.1972.1080p.AMZN.WEBRip.DDP2.0.x264-SbR 12.19GB-1.jpg

◎译  名 日为吾兄月为吾妹 / 太阳神父月亮修女 / Brother Sun, Sister Moon
◎片  名 Fratello sole, sorella luna
◎年  代 1972
◎产  地 意大利 / 英国
◎类  别 剧情 / 列传 / 历史 / 战争
◎语  言 英语
◎上映日期 1972-03-03
◎IMDb评星  ★★★★★★★☆☆☆
◎IMDb评分  7.2/10 from 4,912 users
◎IMDb链接  https://www.imdb.com/title/tt0069824/
◎豆瓣评星 ★★★★☆
◎豆瓣评分 8.0/10 from 464 users
◎豆瓣链接 https://movie.douban.com/subject/1298986/
◎片  长 121分钟
◎导  演 佛朗哥·泽菲雷里 / Franco Zeffirelli
◎演  员 格雷厄姆·福克纳 / Graham Faulkner
      朱迪·鲍克尔 / Judi Bowker | 饰 Clare
      瓦伦蒂娜·格特斯 / Valentina Cortese
      亚历克·吉尼斯 / Alec Guinness
      彼得·弗斯 / Peter Firth
      利·劳森 / Leigh Lawson
      阿道弗·切利 / Adolfo Celi
      李·蒙太古 / Lee Montague
      Carlo Hinterman Carlo Hinterman
      迈克尔·菲斯特 / Michael Feast
      肯内斯·库兰汉姆 / Kenneth Cranham
      阿里斯蒂德·卡波拉莱 / Aristide Caporale
      约翰·夏普 / John Sharp
◎编  剧 佛朗哥·泽菲雷里 / Franco Zeffirelli
      肯尼斯·罗斯 / Kenneth Ross
      里娜·韦特缪勒 / Lina Wertmüller
      苏索·切基·达米科 / Suso Cecchi d'Amico
◎制  片  人 戴森·洛福尔 / Dyson Lovell
◎音  乐 阿里杰铎·鄂洛多纳尼 / Riz Ortolani
◎摄  影 恩尼奥·瓜尼埃里 / Ennio Guarnieri
◎美  术 洛伦佐·蒙吉亚迪诺 / Lorenzo Mongiardino
      吉安尼·夸兰塔 / Gianni Quaranta
◎服  装 达尼洛·多纳蒂 / Danilo Donati

◎简  介 

  疆场高低来的佛南却斯克,一天早上他忽然听到窗边有一只小鸟在叫,因而醒来并追逐小鸟至屋顶,他像小鸟一样兴奋地张开双手,好象要飞到天空中。就从那一天起头他的生活发生了变化,而且他熟悉了一个清纯善良的姑娘克蕾亚。这位姑娘掉臂家人的劝告,单身来到市镇,动手轻建已成废墟的圣塔米阿罗教会。这时,有很多亲友来投靠佛南却斯克。当市镇里的教会看到这一幕时,竟制止镇上的百姓给他们恩赐。这时只要克蕾亚送面包……[

◎获奖情况 

  第46届奥斯卡金像奖 (1974)
  最好艺术指导(提名) 洛伦佐·蒙吉亚迪诺,吉安尼·夸兰塔,卡尔梅洛·帕特罗诺‘
  1. Video
  2. ID : 1
  3. Format : AVC
  4. Format/Info : Advanced Video Codec
  5. Format profile : High@L4
  6. Format settings, CABAC : Yes
  7. Format settings, ReFrames : 4 frames
  8. Codec ID : V_MPEG4/ISO/AVC
  9. Duration : 2h 1mn
  10. Bit rate mode : Variable
  11. Bit rate : 14.2 Mbps
  12. Maximum bit rate : 15.0 Mbps
  13. Width : 1 920 pixels
  14. Height : 1 080 pixels
  15. Display aspect ratio : 16:9
  16. Frame rate mode : Constant
  17. Frame rate : 23.976 (24000/1001) fps
  18. Color space : YUV
  19. Chroma subsampling : 4:2:0
  20. Bit depth : 8 bits
  21. Scan type : Progressive
  22. Bits/(Pixel*Frame) : 0.285
  23. Stream size : 12.0 GiB (98%)
  24. Writing library : x264 core 148 r2623 d5b2374
  25. Encoding settings : cabac=1 / ref=4 / deblock=1:-1:-1 / analyse=0x3:0x133 / me=umh / subme=9 / psy=1 / psy_rd=1.00:0.15 / mixed_ref=1 / me_range=24 / chroma_me=1 / trellis=2 / 8x8dct=1 / cqm=0 / deadzone=21,11 / fast_pskip=1 / chroma_qp_offset=-3 / threads=34 / lookahead_threads=5 / sliced_threads=0 / nr=150 / decimate=1 / interlaced=0 / bluray_compat=0 / constrained_intra=0 / bframes=8 / b_pyramid=2 / b_adapt=2 / b_bias=0 / direct=3 / weightb=1 / open_gop=0 / weightp=2 / keyint=120 / keyint_min=61 / scenecut=0 / intra_refresh=0 / rc_lookahead=120 / rc=crf / mbtree=1 / crf=18.0 / qcomp=0.60 / qpmin=0 / qpmax=69 / qpstep=4 / vbv_maxrate=15000 / vbv_bufsize=31250 / crf_max=0.0 / nal_hrd=vbr / filler=0 / ip_ratio=1.40 / aq=3:1.00
  26. Language : English
  27. Default : Yes
  28. Forced : No
  29. Color range : Limited
  30. Color primaries : BT.709
  31. Transfer characteristics : BT.709
  32. Matrix coefficients : BT.709

  33. Audio
  34. ID : 2
  35. Format : E-AC-3
  36. Format/Info : Audio Coding 3
  37. Format settings, Endianness : Big
  38. Codec ID : A_EAC3
  39. Duration : 2h 1mn
  40. Bit rate mode : Constant
  41. Bit rate : 224 Kbps
  42. Channel(s) : 2 channels
  43. Channel positions : Front: L R
  44. Sampling rate : 48.0 KHz
  45. Frame rate : 187.500 fps (256 spf)
  46. Compression mode : Lossy
  47. Stream size : 194 MiB (2%)
  48. Language : English
  49. Default : Yes
  50. Forced : No

  51. Text #1
  52. ID : 3
  53. Format : UTF-8
  54. Codec ID : S_TEXT/UTF8
  55. Codec ID/Info : UTF-8 Plain Text
  56. Duration : 2h 0mn
  57. Bit rate : 35 bps
  58. Count of elements : 860
  59. Stream size : 31.0 KiB (0%)
  60. Language : English
  61. Default : No
  62. Forced : No

  63. Text #2
  64. ID : 4
  65. Format : UTF-8
  66. Codec ID : S_TEXT/UTF8
  67. Codec ID/Info : UTF-8 Plain Text
  68. Duration : 2h 0mn
  69. Bit rate : 38 bps
  70. Count of elements : 1225
  71. Stream size : 33.7 KiB (0%)
  72. Title : SDH
  73. Language : English
  74. Default : No
  75. Forced : No

  76. Menu
  77. 00:00:00.000 : en:1. Francesco
  78. 00:08:38.900 : en:2. Sons of Assisi
  79. 00:13:58.033 : en:3. Awakening
  80. 00:25:11.500 : en:4. The Old Church
  81. 00:33:19.167 : en:5. Family Business
  82. 00:42:54.134 : en:6. Born Again
  83. 00:51:28.934 : en:7. Cornerstones
  84. 01:03:36.067 : en:8. Simple Message
  85. 01:15:19.233 : en:9. Flesh Is Weak
  86. 01:25:32.233 : en:10. Worshippers Gather
  87. 01:34:56.333 : en:11. Journey to Rome
  88. 01:39:30.499 : en:12. Before the Pope
  89. 01:48:29.032 : en:13. Blessed
复制代码









回复

使用道具 举报

蓝光币
8
发表于 2024-5-9 20:08:14 | 显示全部楼层

这个帖子不回对不起自己!我想我是一天也不能离开蓝光电影网。
回复

使用道具 举报

懒得打字嘛,点击右侧快捷回复 【右侧内容,后台自定义】
您需要登录后才可以回帖 登录 | 立即加入

本版积分规则

Archiver| |网站地图

Copyright © 2024 Comsenz Inc. Powered by 蓝光电影网

本站内容由用户自主分享和转载自互联网,转载目的在于传递更多信息,并不代表本网赞同其观点和对其真实性负责。

如有侵权、违反国家法律政策行为,请联系我们,我们会第一时间及时清除和处理!

举报反馈邮箱:4k1080.com@gmail.com

快速回复 返回顶部 返回列表