找回密码

查看: 602|回复: 5

[2160p-WEB] 阿盖尔:神秘特工.Argylle.2024.Eng.Fre.Ger.Ita.Por.Spa.2160p.WEBMux.HDR.HDR10Plus.HEVC.Atmos-SGF 28.63GB

[复制链接]
蓝光币
1925
发表于 2024-3-29 15:18:58 | 显示全部楼层 |阅读模式


◎译  名 阿盖尔:奥秘奸细 / 机密特务:阿盖尔(台) / 奸细亚皆老(港) / 阿吉尔 / 闪烁师长 / 特务亚盖尔
◎片  名 Argylle
◎年  代 2024
◎产  地 英国 / 美国
◎类  别 行动 / 惊悚
◎语  言 英语
◎上映日期 2024-01-31(法国) / 2024-02-02(美国) / 2024-02-23(中国大陆)
◎IMDb评星  ★★★★★✦☆☆☆☆
◎IMDb评分  5.7/10 from 46,692 users
◎IMDb链接  https://www.imdb.com/title/tt15009428/
◎豆瓣评星 ★★★☆☆
◎豆瓣评分 5.8/10 from 21,708 users
◎豆瓣链接 https://movie.douban.com/subject/35520056/
◎片  长 139分钟
◎导  演 马修·沃恩 / Matthew Vaughn
◎演  员 布莱丝·达拉斯·霍华德 / Bryce Dallas Howard | 饰 叶利·康韦 Elly Conway / 瑞秋·凯尔 Rachel Kylle
      山姆·洛克威尔 / Sam Rockwell | 饰 艾登·怀尔德 Aiden Wilde
      亨利·卡维尔 / Henry Cavill | 饰 阿盖尔 Argylle
      塞缪尔·杰克逊 / Samuel L. Jackson | 饰 阿尔弗雷德·所罗门 Alfred Solomon
      布莱恩·克兰斯顿 / Bryan Cranston | 饰 巴里·康韦 Barry Conway / 里特尔 Director Ritter
      凯瑟琳·欧哈拉 / Catherine O'Hara | 饰 露丝·康韦 Ruth Conway / 玛格丽特·沃格勒 Margaret Vogler
      奇普 / Chip | 饰 阿尔菲 Alfie
      阿丽亚娜·德博斯 / Ariana DeBose | 饰 琪拉 Keira
      杜阿·利帕 / Dua Lipa | 饰 勒格朗奇 Lagrange
      约翰·塞纳 / John Cena | 饰 怀亚特 Wyatt
      索菲亚·波多拉 / Sofia Boutella | 饰 萨巴·阿尔-巴德尔 Saba Al-Badr
      理查德·E·格兰特 / Richard E. Grant | 饰 富勒 Fowler
      罗伯·德兰尼 / Rob Delaney | 饰 鲍威尔 Deputy Director Powell
      陆思敬 / Jing Lusi | 饰 李蜜斯 Miss Li
      路易斯·帕特里奇 / Louis Partridge | 饰 奥布里·阿盖尔 Aubrey Argylle
      本·丹尼尔斯 / Ben Daniels | 饰 金士曼侍者 Bartender
      斯坦利·摩根 / Stanley Morgan | 饰 巴枯宁 Bakunin
      托米瓦·埃敦 / Tomiwa Edun | 饰 诺兰 Deputy Nolan
      托马斯·帕雷德斯 / Tomás Paredes | 饰 卡洛斯 Carlos
      贾森·福克斯 / Jason Fuchs | 饰 Moderator
      格雷西亚·德拉巴斯 / Grecia De la Paz | 饰 Greek Agent
      阿拉·哈比卜 / Alaa Habib | 饰 Zoe
      菲奥娜·马尔 / Fiona Marr | 饰 Bar Woman
      鲍比·霍兰德·汉顿 / Bobby Holland Hanton | 饰 Enforcer 1
      阿尔弗雷多·塔瓦雷斯 / Alfredo Tavares | 饰 Marcus
      丹尼尔·辛格 / Daniel Singh | 饰 Armed Guard 1
      康提·罗曼 / Kandy Rohmann | 饰 Train Conductor
       Greg Townley | 饰 Enforcer #2
       Clementine Vaughn | 饰 Fan #2
       Raagni Sharma | 饰 Fan #1
       Chip | 饰 Alfie the Cat
       Diljohn Singh | 饰 1st Class Passenger #1
◎编  剧 贾森·福克斯 / Jason Fuchs
◎制  片  人 马修·沃恩 / Matthew Vaughn
      贾森·福克斯 / Jason Fuchs
      克劳迪亚·席弗 / Claudia Schiffer
◎音  乐 洛内·巴尔菲 / Lorne Balfe
◎摄  影 乔治·瑞奇蒙 / George Richmond
◎剪  辑 李·史姑娘 / Lee Smith
◎美  术 丹尼尔·泰勒 / Daniel Taylor
◎服  装 斯蒂芬妮·科里 /  Stephanie Collie
◎行动特技 杨亮 / Liang Yang
◎简  介 
  影片围绕特务小说作家叶利·康韦(布莱丝·达拉斯·霍华德 Bryce Dallas Howard 饰)的作品展开。叶利的小说报告奥秘奸细阿盖尔(亨利·卡维尔 Henry Cavill 饰)及其崩溃全球特务团体的使命,而小说中的情节却意外起头与实在特务构造的奥秘行动出现惊人 的分歧。在奸细艾登(山姆·洛克威尔 Sam Rockwell 饰)的伴随下,叶利带着猫咪阿尔菲(Chip 饰)穿越天下,极力赶在特务构造的杀手们行动之前化解危机,此时小说的虚拟天下与现实之间的界限起头变得模糊不清。随之而来的是一场跨越全球的冒险。
  1. General
  2. Unique ID: 61474151873127793599849538800936674829 (0x2E3F7DB1825FB3B249EDB96AE459E60D)
  3. Complete name: Argylle.2024.Eng.Fre.Ger.Ita.Por.Spa.2160p.WEBMux.HDR.HDR10Plus.HEVC.Atmos-SGF.mkv
  4. Format: Matroska
  5. Format version: Version 4
  6. File size: 28.6 GiB
  7. Duration: 2 h 18 min
  8. Overall bit rate: 29.6 Mb/s
  9. Frame rate: 23.976 FPS
  10. Encoded date: 2024-03-27 05:22:35 UTC
  11. Writing application: mkvmerge v83.0 ('Circle Of Friends') 64-bit
  12. Writing library: libebml v1.4.5 + libmatroska v1.7.1
  13. Video
  14. ID: 1
  15. Format: HEVC
  16. Format/Info: High Efficiency Video Coding
  17. Format profile: Main 10@L5@High
  18. HDR format: SMPTE ST 2094 App 4, Version 1, HDR10+ Profile B compatible / SMPTE ST 2086, HDR10 compatible
  19. Codec ID: V_MPEGH/ISO/HEVC
  20. Duration: 2 h 18 min
  21. Bit rate: 24.2 Mb/s
  22. Width: 3 840 pixels
  23. Height: 1 604 pixels
  24. Display aspect ratio: 2.39:1
  25. Frame rate mode: Constant
  26. Frame rate: 23.976 (24000/1001) FPS
  27. Color space: YUV
  28. Chroma subsampling: 4:2:0 (Type 2)
  29. Bit depth: 10 bits
  30. Bits/(Pixel*Frame): 0.164
  31. Stream size: 23.4 GiB (82%)
  32. Default: Yes
  33. Forced: No
  34. Color range: Limited
  35. Color primaries: BT.2020
  36. Transfer characteristics: PQ
  37. Matrix coefficients: BT.2020 non-constant
  38. Mastering display color primaries: Display P3
  39. Mastering display luminance: min: 0.0050 cd/m2, max: 1000 cd/m2
  40. Maximum Content Light Level: 831 cd/m2
  41. Maximum Frame-Average Light Level: 346 cd/m2
  42. Audio 1
  43. ID: 2
  44. Format: E-AC-3 JOC
  45. Format/Info: Enhanced AC-3 with Joint Object Coding
  46. Commercial name: Dolby Digital Plus with Dolby Atmos
  47. Codec ID: A_EAC3
  48. Duration: 2 h 18 min
  49. Bit rate mode: Constant
  50. Bit rate: 768 kb/s
  51. Channel(s): 6 channels
  52. Channel layout: L R C LFE Ls Rs
  53. Sampling rate: 48.0 kHz
  54. Frame rate: 31.250 FPS (1536 SPF)
  55. Compression mode: Lossy
  56. Stream size: 762 MiB (3%)
  57. Title: English [Dolby Digital Plus Atmos 5.1]
  58. Language: English
  59. Service kind: Complete Main
  60. Default: Yes
  61. Forced: No
  62. Complexity index: 16
  63. Number of dynamic objects: 15
  64. Bed channel count: 1 channel
  65. Bed channel configuration: LFE
  66. Audio 2
  67. ID: 3
  68. Format: E-AC-3 JOC
  69. Format/Info: Enhanced AC-3 with Joint Object Coding
  70. Commercial name: Dolby Digital Plus with Dolby Atmos
  71. Codec ID: A_EAC3
  72. Duration: 2 h 18 min
  73. Bit rate mode: Constant
  74. Bit rate: 768 kb/s
  75. Channel(s): 6 channels
  76. Channel layout: L R C LFE Ls Rs
  77. Sampling rate: 48.0 kHz
  78. Frame rate: 31.250 FPS (1536 SPF)
  79. Compression mode: Lossy
  80. Stream size: 762 MiB (3%)
  81. Title: French (France) [Dolby Digital Plus Atmos 5.1]
  82. Language: French (FR)
  83. Service kind: Complete Main
  84. Default: No
  85. Forced: No
  86. Complexity index: 16
  87. Number of dynamic objects: 15
  88. Bed channel count: 1 channel
  89. Bed channel configuration: LFE
  90. Audio 3
  91. ID: 4
  92. Format: E-AC-3 JOC
  93. Format/Info: Enhanced AC-3 with Joint Object Coding
  94. Commercial name: Dolby Digital Plus with Dolby Atmos
  95. Codec ID: A_EAC3
  96. Duration: 2 h 18 min
  97. Bit rate mode: Constant
  98. Bit rate: 768 kb/s
  99. Channel(s): 6 channels
  100. Channel layout: L R C LFE Ls Rs
  101. Sampling rate: 48.0 kHz
  102. Frame rate: 31.250 FPS (1536 SPF)
  103. Compression mode: Lossy
  104. Stream size: 762 MiB (3%)
  105. Title: German [Dolby Digital Plus Atmos 5.1]
  106. Language: German
  107. Service kind: Complete Main
  108. Default: No
  109. Forced: No
  110. Complexity index: 16
  111. Number of dynamic objects: 15
  112. Bed channel count: 1 channel
  113. Bed channel configuration: LFE
  114. Audio 4
  115. ID: 5
  116. Format: E-AC-3 JOC
  117. Format/Info: Enhanced AC-3 with Joint Object Coding
  118. Commercial name: Dolby Digital Plus with Dolby Atmos
  119. Codec ID: A_EAC3
  120. Duration: 2 h 18 min
  121. Bit rate mode: Constant
  122. Bit rate: 768 kb/s
  123. Channel(s): 6 channels
  124. Channel layout: L R C LFE Ls Rs
  125. Sampling rate: 48.0 kHz
  126. Frame rate: 31.250 FPS (1536 SPF)
  127. Compression mode: Lossy
  128. Stream size: 762 MiB (3%)
  129. Title: Italian [Dolby Digital Plus Atmos 5.1]
  130. Language: Italian
  131. Service kind: Complete Main
  132. Default: No
  133. Forced: No
  134. Complexity index: 16
  135. Number of dynamic objects: 15
  136. Bed channel count: 1 channel
  137. Bed channel configuration: LFE
  138. Audio 5
  139. ID: 6
  140. Format: E-AC-3 JOC
  141. Format/Info: Enhanced AC-3 with Joint Object Coding
  142. Commercial name: Dolby Digital Plus with Dolby Atmos
  143. Codec ID: A_EAC3
  144. Duration: 2 h 18 min
  145. Bit rate mode: Constant
  146. Bit rate: 768 kb/s
  147. Channel(s): 6 channels
  148. Channel layout: L R C LFE Ls Rs
  149. Sampling rate: 48.0 kHz
  150. Frame rate: 31.250 FPS (1536 SPF)
  151. Compression mode: Lossy
  152. Stream size: 762 MiB (3%)
  153. Title: Portuguese (Brazil) [Dolby Digital Plus Atmos 5.1]
  154. Language: Portuguese (BR)
  155. Service kind: Complete Main
  156. Default: No
  157. Forced: No
  158. Complexity index: 16
  159. Number of dynamic objects: 15
  160. Bed channel count: 1 channel
  161. Bed channel configuration: LFE
  162. Audio 6
  163. ID: 7
  164. Format: E-AC-3 JOC
  165. Format/Info: Enhanced AC-3 with Joint Object Coding
  166. Commercial name: Dolby Digital Plus with Dolby Atmos
  167. Codec ID: A_EAC3
  168. Duration: 2 h 18 min
  169. Bit rate mode: Constant
  170. Bit rate: 768 kb/s
  171. Channel(s): 6 channels
  172. Channel layout: L R C LFE Ls Rs
  173. Sampling rate: 48.0 kHz
  174. Frame rate: 31.250 FPS (1536 SPF)
  175. Compression mode: Lossy
  176. Stream size: 762 MiB (3%)
  177. Title: Spanish (Spain) [Dolby Digital Plus Atmos 5.1]
  178. Language: Spanish (ES)
  179. Service kind: Complete Main
  180. Default: No
  181. Forced: No
  182. Complexity index: 16
  183. Number of dynamic objects: 15
  184. Bed channel count: 1 channel
  185. Bed channel configuration: LFE
  186. Audio 7
  187. ID: 8
  188. Format: E-AC-3 JOC
  189. Format/Info: Enhanced AC-3 with Joint Object Coding
  190. Commercial name: Dolby Digital Plus with Dolby Atmos
  191. Codec ID: A_EAC3
  192. Duration: 2 h 18 min
  193. Bit rate mode: Constant
  194. Bit rate: 768 kb/s
  195. Channel(s): 6 channels
  196. Channel layout: L R C LFE Ls Rs
  197. Sampling rate: 48.0 kHz
  198. Frame rate: 31.250 FPS (1536 SPF)
  199. Compression mode: Lossy
  200. Stream size: 762 MiB (3%)
  201. Title: Spanish (Latin America) [Dolby Digital Plus Atmos 5.1]
  202. Language: Spanish (Latin America)
  203. Service kind: Complete Main
  204. Default: No
  205. Forced: No
  206. Complexity index: 16
  207. Number of dynamic objects: 15
  208. Bed channel count: 1 channel
  209. Bed channel configuration: LFE
  210. Text 1
  211. ID: 9
  212. Format: UTF-8
  213. Codec ID: S_TEXT/UTF8
  214. Codec ID/Info: UTF-8 Plain Text
  215. Duration: 2 h 10 min
  216. Bit rate: 55 b/s
  217. Frame rate: 0.219 FPS
  218. Count of elements: 1714
  219. Stream size: 53.3 KiB (0%)
  220. Title: English [Full]
  221. Language: English
  222. Default: No
  223. Forced: No
  224. Text 2
  225. ID: 10
  226. Format: UTF-8
  227. Codec ID: S_TEXT/UTF8
  228. Codec ID/Info: UTF-8 Plain Text
  229. Duration: 2 h 15 min
  230. Bit rate: 64 b/s
  231. Frame rate: 0.254 FPS
  232. Count of elements: 2060
  233. Stream size: 63.5 KiB (0%)
  234. Title: English [SDH]
  235. Language: English
  236. Default: No
  237. Forced: No
  238. Text 3
  239. ID: 11
  240. Format: UTF-8
  241. Codec ID: S_TEXT/UTF8
  242. Codec ID/Info: UTF-8 Plain Text
  243. Duration: 2 h 17 min
  244. Bit rate: 49 b/s
  245. Frame rate: 0.228 FPS
  246. Count of elements: 1876
  247. Stream size: 49.7 KiB (0%)
  248. Title: French (France) [Full]
  249. Language: French (FR)
  250. Default: No
  251. Forced: No
  252. Text 4
  253. ID: 12
  254. Format: UTF-8
  255. Codec ID: S_TEXT/UTF8
  256. Codec ID/Info: UTF-8 Plain Text
  257. Duration: 2 h 8 min
  258. Bit rate: 0 b/s
  259. Frame rate: 0.002 FPS
  260. Count of elements: 13
  261. Stream size: 300 Bytes (0%)
  262. Title: French (France) [Forced]
  263. Language: French (FR)
  264. Default: No
  265. Forced: No
  266. Text 5
  267. ID: 13
  268. Format: UTF-8
  269. Codec ID: S_TEXT/UTF8
  270. Codec ID/Info: UTF-8 Plain Text
  271. Duration: 2 h 17 min
  272. Bit rate: 54 b/s
  273. Frame rate: 0.189 FPS
  274. Count of elements: 1560
  275. Stream size: 54.9 KiB (0%)
  276. Title: German [Full]
  277. Language: German
  278. Default: No
  279. Forced: No
  280. Text 6
  281. ID: 14
  282. Format: UTF-8
  283. Codec ID: S_TEXT/UTF8
  284. Codec ID/Info: UTF-8 Plain Text
  285. Duration: 2 h 8 min
  286. Bit rate: 0 b/s
  287. Frame rate: 0.002 FPS
  288. Count of elements: 16
  289. Stream size: 414 Bytes (0%)
  290. Title: German [Forced]
  291. Language: German
  292. Default: No
  293. Forced: No
  294. Text 7
  295. ID: 15
  296. Format: UTF-8
  297. Codec ID: S_TEXT/UTF8
  298. Codec ID/Info: UTF-8 Plain Text
  299. Duration: 2 h 17 min
  300. Bit rate: 51 b/s
  301. Frame rate: 0.209 FPS
  302. Count of elements: 1730
  303. Stream size: 51.7 KiB (0%)
  304. Title: Italian [Full]
  305. Language: Italian
  306. Default: No
  307. Forced: No
  308. Text 8
  309. ID: 16
  310. Format: UTF-8
  311. Codec ID: S_TEXT/UTF8
  312. Codec ID/Info: UTF-8 Plain Text
  313. Duration: 2 h 11 min
  314. Bit rate: 0 b/s
  315. Frame rate: 0.005 FPS
  316. Count of elements: 38
  317. Stream size: 903 Bytes (0%)
  318. Title: Italian [Forced]
  319. Language: Italian
  320. Default: No
  321. Forced: No
  322. Text 9
  323. ID: 17
  324. Format: UTF-8
  325. Codec ID: S_TEXT/UTF8
  326. Codec ID/Info: UTF-8 Plain Text
  327. Duration: 2 h 17 min
  328. Bit rate: 52 b/s
  329. Frame rate: 0.207 FPS
  330. Count of elements: 1705
  331. Stream size: 52.9 KiB (0%)
  332. Title: Portuguese (Brazil) [Full]
  333. Language: Portuguese (BR)
  334. Default: No
  335. Forced: No
  336. Text 10
  337. ID: 18
  338. Format: UTF-8
  339. Codec ID: S_TEXT/UTF8
  340. Codec ID/Info: UTF-8 Plain Text
  341. Duration: 2 h 8 min
  342. Bit rate: 1 b/s
  343. Frame rate: 0.006 FPS
  344. Count of elements: 50
  345. Stream size: 1.34 KiB (0%)
  346. Title: Portuguese (Brazil) [Forced]
  347. Language: Portuguese (BR)
  348. Default: No
  349. Forced: No
  350. Text 11
  351. ID: 19
  352. Format: UTF-8
  353. Codec ID: S_TEXT/UTF8
  354. Codec ID/Info: UTF-8 Plain Text
  355. Duration: 2 h 17 min
  356. Bit rate: 51 b/s
  357. Frame rate: 0.210 FPS
  358. Count of elements: 1725
  359. Stream size: 51.5 KiB (0%)
  360. Title: Spanish (Spain) [Full]
  361. Language: Spanish (ES)
  362. Default: No
  363. Forced: No
  364. Text 12
  365. ID: 20
  366. Format: UTF-8
  367. Codec ID: S_TEXT/UTF8
  368. Codec ID/Info: UTF-8 Plain Text
  369. Duration: 2 h 8 min
  370. Bit rate: 1 b/s
  371. Frame rate: 0.007 FPS
  372. Count of elements: 55
  373. Stream size: 1.24 KiB (0%)
  374. Title: Spanish (Spain) [Forced]
  375. Language: Spanish (ES)
  376. Default: No
  377. Forced: No
  378. Text 13
  379. ID: 21
  380. Format: UTF-8
  381. Codec ID: S_TEXT/UTF8
  382. Codec ID/Info: UTF-8 Plain Text
  383. Duration: 2 h 17 min
  384. Bit rate: 52 b/s
  385. Frame rate: 0.214 FPS
  386. Count of elements: 1768
  387. Stream size: 53.2 KiB (0%)
  388. Title: Spanish (Latin America) [Full]
  389. Language: Spanish (Latin America)
  390. Default: No
  391. Forced: No
  392. Text 14
  393. ID: 22
  394. Format: UTF-8
  395. Codec ID: S_TEXT/UTF8
  396. Codec ID/Info: UTF-8 Plain Text
  397. Duration: 2 h 11 min
  398. Bit rate: 1 b/s
  399. Frame rate: 0.006 FPS
  400. Count of elements: 50
  401. Stream size: 1.36 KiB (0%)
  402. Title: Spanish (Latin America) [Forced]
  403. Language: Spanish (Latin America)
  404. Default: No
  405. Forced: No
  406. Text 15
  407. ID: 23
  408. Format: UTF-8
  409. Codec ID: S_TEXT/UTF8
  410. Codec ID/Info: UTF-8 Plain Text
  411. Duration: 2 h 17 min
  412. Bit rate: 84 b/s
  413. Frame rate: 0.216 FPS
  414. Count of elements: 1777
  415. Stream size: 84.9 KiB (0%)
  416. Title: Arabic [Full]
  417. Language: Arabic
  418. Default: No
  419. Forced: No
  420. Text 16
  421. ID: 24
  422. Format: UTF-8
  423. Codec ID: S_TEXT/UTF8
  424. Codec ID/Info: UTF-8 Plain Text
  425. Duration: 2 h 17 min
  426. Bit rate: 76 b/s
  427. Frame rate: 0.164 FPS
  428. Count of elements: 1346
  429. Stream size: 77.0 KiB (0%)
  430. Title: Bulgarian [Full]
  431. Language: Bulgarian
  432. Default: No
  433. Forced: No
  434. Text 17
  435. ID: 25
  436. Format: UTF-8
  437. Codec ID: S_TEXT/UTF8
  438. Codec ID/Info: UTF-8 Plain Text
  439. Duration: 2 h 17 min
  440. Bit rate: 42 b/s
  441. Frame rate: 0.215 FPS
  442. Count of elements: 1774
  443. Stream size: 43.0 KiB (0%)
  444. Title: Chinese (Cantonese) [Full]
  445. Language: Cantonese (Hant)
  446. Default: No
  447. Forced: No
  448. Text 18
  449. ID: 26
  450. Format: UTF-8
  451. Codec ID: S_TEXT/UTF8
  452. Codec ID/Info: UTF-8 Plain Text
  453. Duration: 2 h 17 min
  454. Bit rate: 48 b/s
  455. Frame rate: 0.216 FPS
  456. Count of elements: 1775
  457. Stream size: 48.4 KiB (0%)
  458. Title: Chinese (Simplified) [Full]
  459. Language: Mandarin (Hans)
  460. Default: No
  461. Forced: No
  462. Text 19
  463. ID: 27
  464. Format: UTF-8
  465. Codec ID: S_TEXT/UTF8
  466. Codec ID/Info: UTF-8 Plain Text
  467. Duration: 2 h 17 min
  468. Bit rate: 45 b/s
  469. Frame rate: 0.215 FPS
  470. Count of elements: 1777
  471. Stream size: 45.6 KiB (0%)
  472. Title: Chinese (Traditional) [Full]
  473. Language: Mandarin (Hant)
  474. Default: No
  475. Forced: No
  476. Text 20
  477. ID: 28
  478. Format: UTF-8
  479. Codec ID: S_TEXT/UTF8
  480. Codec ID/Info: UTF-8 Plain Text
  481. Duration: 2 h 17 min
  482. Bit rate: 54 b/s
  483. Frame rate: 0.199 FPS
  484. Count of elements: 1644
  485. Stream size: 54.6 KiB (0%)
  486. Title: Czech [Full]
  487. Language: Czech
  488. Default: No
  489. Forced: No
  490. Text 21
  491. ID: 29
  492. Format: UTF-8
  493. Codec ID: S_TEXT/UTF8
  494. Codec ID/Info: UTF-8 Plain Text
  495. Duration: 2 h 17 min
  496. Bit rate: 49 b/s
  497. Frame rate: 0.168 FPS
  498. Count of elements: 1379
  499. Stream size: 50.2 KiB (0%)
  500. Title: Danish [Full]
  501. Language: Danish
  502. Default: No
  503. Forced: No
  504. Text 22
  505. ID: 30
  506. Format: UTF-8
  507. Codec ID: S_TEXT/UTF8
  508. Codec ID/Info: UTF-8 Plain Text
  509. Duration: 2 h 17 min
  510. Bit rate: 48 b/s
  511. Frame rate: 0.170 FPS
  512. Count of elements: 1396
  513. Stream size: 49.1 KiB (0%)
  514. Title: Dutch [Full]
  515. Language: Dutch
  516. Default: No
  517. Forced: No
  518. Text 23
  519. ID: 31
  520. Format: UTF-8
  521. Codec ID: S_TEXT/UTF8
  522. Codec ID/Info: UTF-8 Plain Text
  523. Duration: 2 h 17 min
  524. Bit rate: 53 b/s
  525. Frame rate: 0.210 FPS
  526. Count of elements: 1730
  527. Stream size: 54.0 KiB (0%)
  528. Title: Estonian [Full]
  529. Language: Estonian
  530. Default: No
  531. Forced: No
  532. Text 24
  533. ID: 32
  534. Format: UTF-8
  535. Codec ID: S_TEXT/UTF8
  536. Codec ID/Info: UTF-8 Plain Text
  537. Duration: 2 h 17 min
  538. Bit rate: 52 b/s
  539. Frame rate: 0.203 FPS
  540. Count of elements: 1673
  541. Stream size: 52.7 KiB (0%)
  542. Title: Finnish [Full]
  543. Language: Finnish
  544. Default: No
  545. Forced: No
  546. Text 25
  547. ID: 33
  548. Format: UTF-8
  549. Codec ID: S_TEXT/UTF8
  550. Codec ID/Info: UTF-8 Plain Text
  551. Duration: 2 h 17 min
  552. Bit rate: 49 b/s
  553. Frame rate: 0.228 FPS
  554. Count of elements: 1877
  555. Stream size: 49.7 KiB (0%)
  556. Title: French (Canada) [Full]
  557. Language: French (CA)
  558. Default: No
  559. Forced: No
  560. Text 26
  561. ID: 34
  562. Format: UTF-8
  563. Codec ID: S_TEXT/UTF8
  564. Codec ID/Info: UTF-8 Plain Text
  565. Duration: 2 h 17 min
  566. Bit rate: 91 b/s
  567. Frame rate: 0.181 FPS
  568. Count of elements: 1492
  569. Stream size: 92.7 KiB (0%)
  570. Title: Greek [Full]
  571. Language: Greek
  572. Default: No
  573. Forced: No
  574. Text 27
  575. ID: 35
  576. Format: UTF-8
  577. Codec ID: S_TEXT/UTF8
  578. Codec ID/Info: UTF-8 Plain Text
  579. Duration: 2 h 17 min
  580. Bit rate: 81 b/s
  581. Frame rate: 0.216 FPS
  582. Count of elements: 1776
  583. Stream size: 81.8 KiB (0%)
  584. Title: Hebrew [Full]
  585. Language: Hebrew
  586. Default: No
  587. Forced: No
  588. Text 28
  589. ID: 36
  590. Format: UTF-8
  591. Codec ID: S_TEXT/UTF8
  592. Codec ID/Info: UTF-8 Plain Text
  593. Duration: 2 h 17 min
  594. Bit rate: 155 b/s
  595. Frame rate: 0.215 FPS
  596. Count of elements: 1777
  597. Stream size: 157 KiB (0%)
  598. Title: Hindi [Full]
  599. Language: Hindi
  600. Default: No
  601. Forced: No
  602. Text 29
  603. ID: 37
  604. Format: UTF-8
  605. Codec ID: S_TEXT/UTF8
  606. Codec ID/Info: UTF-8 Plain Text
  607. Duration: 2 h 17 min
  608. Bit rate: 53 b/s
  609. Frame rate: 0.213 FPS
  610. Count of elements: 1756
  611. Stream size: 53.7 KiB (0%)
  612. Title: Hungarian [Full]
  613. Language: Hungarian
  614. Default: No
  615. Forced: No
  616. Text 30
  617. ID: 38
  618. Format: UTF-8
  619. Codec ID: S_TEXT/UTF8
  620. Codec ID/Info: UTF-8 Plain Text
  621. Duration: 2 h 17 min
  622. Bit rate: 53 b/s
  623. Frame rate: 0.214 FPS
  624. Count of elements: 1762
  625. Stream size: 53.9 KiB (0%)
  626. Title: Indonesian [Full]
  627. Language: Indonesian
  628. Default: No
  629. Forced: No
  630. Text 31
  631. ID: 39
  632. Format: UTF-8
  633. Codec ID: S_TEXT/UTF8
  634. Codec ID/Info: UTF-8 Plain Text
  635. Duration: 2 h 17 min
  636. Bit rate: 46 b/s
  637. Frame rate: 0.214 FPS
  638. Count of elements: 1772
  639. Stream size: 47.5 KiB (0%)
  640. Title: Japanese [Full]
  641. Language: Japanese
  642. Default: No
  643. Forced: No
  644. Text 32
  645. ID: 40
  646. Format: UTF-8
  647. Codec ID: S_TEXT/UTF8
  648. Codec ID/Info: UTF-8 Plain Text
  649. Duration: 2 h 17 min
  650. Bit rate: 53 b/s
  651. Frame rate: 0.213 FPS
  652. Count of elements: 1760
  653. Stream size: 53.5 KiB (0%)
  654. Title: Korean [Full]
  655. Language: Korean
  656. Default: No
  657. Forced: No
  658. Text 33
  659. ID: 41
  660. Format: UTF-8
  661. Codec ID: S_TEXT/UTF8
  662. Codec ID/Info: UTF-8 Plain Text
  663. Duration: 2 h 17 min
  664. Bit rate: 56 b/s
  665. Frame rate: 0.214 FPS
  666. Count of elements: 1760
  667. Stream size: 57.2 KiB (0%)
  668. Title: Latvian [Full]
  669. Language: Latvian
  670. Default: No
  671. Forced: No
  672. Text 34
  673. ID: 42
  674. Format: UTF-8
  675. Codec ID: S_TEXT/UTF8
  676. Codec ID/Info: UTF-8 Plain Text
  677. Duration: 2 h 17 min
  678. Bit rate: 53 b/s
  679. Frame rate: 0.215 FPS
  680. Count of elements: 1767
  681. Stream size: 53.8 KiB (0%)
  682. Title: Lithuanian [Full]
  683. Language: Lithuanian
  684. Default: No
  685. Forced: No
  686. Text 35
  687. ID: 43
  688. Format: UTF-8
  689. Codec ID: S_TEXT/UTF8
  690. Codec ID/Info: UTF-8 Plain Text
  691. Duration: 2 h 17 min
  692. Bit rate: 52 b/s
  693. Frame rate: 0.214 FPS
  694. Count of elements: 1760
  695. Stream size: 52.3 KiB (0%)
  696. Title: Malay [Full]
  697. Language: Malay
  698. Default: No
  699. Forced: No
  700. Text 36
  701. ID: 44
  702. Format: UTF-8
  703. Codec ID: S_TEXT/UTF8
  704. Codec ID/Info: UTF-8 Plain Text
  705. Duration: 2 h 17 min
  706. Bit rate: 51 b/s
  707. Frame rate: 0.187 FPS
  708. Count of elements: 1534
  709. Stream size: 51.7 KiB (0%)
  710. Title: Norwegian [Full]
  711. Language: Norwegian
  712. Default: No
  713. Forced: No
  714. Text 37
  715. ID: 45
  716. Format: UTF-8
  717. Codec ID: S_TEXT/UTF8
  718. Codec ID/Info: UTF-8 Plain Text
  719. Duration: 2 h 17 min
  720. Bit rate: 49 b/s
  721. Frame rate: 0.205 FPS
  722. Count of elements: 1683
  723. Stream size: 49.7 KiB (0%)
  724. Title: Polish [Full]
  725. Language: Polish
  726. Default: No
  727. Forced: No
  728. Text 38
  729. ID: 46
  730. Format: UTF-8
  731. Codec ID: S_TEXT/UTF8
  732. Codec ID/Info: UTF-8 Plain Text
  733. Duration: 2 h 17 min
  734. Bit rate: 54 b/s
  735. Frame rate: 0.212 FPS
  736. Count of elements: 1755
  737. Stream size: 54.7 KiB (0%)
  738. Title: Portuguese (Portugal) [Full]
  739. Language: Portuguese (PT)
  740. Default: No
  741. Forced: No
  742. Text 39
  743. ID: 47
  744. Format: UTF-8
  745. Codec ID: S_TEXT/UTF8
  746. Codec ID/Info: UTF-8 Plain Text
  747. Duration: 2 h 17 min
  748. Bit rate: 84 b/s
  749. Frame rate: 0.215 FPS
  750. Count of elements: 1775
  751. Stream size: 85.0 KiB (0%)
  752. Title: Russian [Full]
  753. Language: Russian
  754. Default: No
  755. Forced: No
  756. Text 40
  757. ID: 48
  758. Format: UTF-8
  759. Codec ID: S_TEXT/UTF8
  760. Codec ID/Info: UTF-8 Plain Text
  761. Duration: 2 h 17 min
  762. Bit rate: 51 b/s
  763. Frame rate: 0.212 FPS
  764. Count of elements: 1751
  765. Stream size: 51.7 KiB (0%)
  766. Title: Slovak [Full]
  767. Language: Slovak
  768. Default: No
  769. Forced: No
  770. Text 41
  771. ID: 49
  772. Format: UTF-8
  773. Codec ID: S_TEXT/UTF8
  774. Codec ID/Info: UTF-8 Plain Text
  775. Duration: 2 h 17 min
  776. Bit rate: 46 b/s
  777. Frame rate: 0.184 FPS
  778. Count of elements: 1513
  779. Stream size: 46.8 KiB (0%)
  780. Title: Slovenian [Full]
  781. Language: Slovenian
  782. Default: No
  783. Forced: No
  784. Text 42
  785. ID: 50
  786. Format: UTF-8
  787. Codec ID: S_TEXT/UTF8
  788. Codec ID/Info: UTF-8 Plain Text
  789. Duration: 2 h 17 min
  790. Bit rate: 53 b/s
  791. Frame rate: 0.214 FPS
  792. Count of elements: 1761
  793. Stream size: 53.7 KiB (0%)
  794. Title: Swedish [Full]
  795. Language: Swedish
  796. Default: No
  797. Forced: No
  798. Text 43
  799. ID: 51
  800. Format: UTF-8
  801. Codec ID: S_TEXT/UTF8
  802. Codec ID/Info: UTF-8 Plain Text
  803. Duration: 2 h 17 min
  804. Bit rate: 168 b/s
  805. Frame rate: 0.216 FPS
  806. Count of elements: 1775
  807. Stream size: 169 KiB (0%)
  808. Title: Tamil [Full]
  809. Language: Tamil
  810. Default: No
  811. Forced: No
  812. Text 44
  813. ID: 52
  814. Format: UTF-8
  815. Codec ID: S_TEXT/UTF8
  816. Codec ID/Info: UTF-8 Plain Text
  817. Duration: 2 h 17 min
  818. Bit rate: 168 b/s
  819. Frame rate: 0.216 FPS
  820. Count of elements: 1776
  821. Stream size: 169 KiB (0%)
  822. Title: Telugu [Full]
  823. Language: Telugu
  824. Default: No
  825. Forced: No
  826. Text 45
  827. ID: 53
  828. Format: UTF-8
  829. Codec ID: S_TEXT/UTF8
  830. Codec ID/Info: UTF-8 Plain Text
  831. Duration: 2 h 17 min
  832. Bit rate: 131 b/s
  833. Frame rate: 0.216 FPS
  834. Count of elements: 1774
  835. Stream size: 132 KiB (0%)
  836. Title: Thai [Full]
  837. Language: Thai
  838. Default: No
  839. Forced: No
  840. Text 46
  841. ID: 54
  842. Format: UTF-8
  843. Codec ID: S_TEXT/UTF8
  844. Codec ID/Info: UTF-8 Plain Text
  845. Duration: 2 h 17 min
  846. Bit rate: 52 b/s
  847. Frame rate: 0.214 FPS
  848. Count of elements: 1762
  849. Stream size: 52.7 KiB (0%)
  850. Title: Turkish [Full]
  851. Language: Turkish
  852. Default: No
  853. Forced: No
  854. Text 47
  855. ID: 55
  856. Format: UTF-8
  857. Codec ID: S_TEXT/UTF8
  858. Codec ID/Info: UTF-8 Plain Text
  859. Duration: 2 h 17 min
  860. Bit rate: 84 b/s
  861. Frame rate: 0.215 FPS
  862. Count of elements: 1776
  863. Stream size: 85.6 KiB (0%)
  864. Title: Ukrainian [Full]
  865. Language: Ukrainian
  866. Default: No
  867. Forced: No
  868. Text 48
  869. ID: 56
  870. Format: UTF-8
  871. Codec ID: S_TEXT/UTF8
  872. Codec ID/Info: UTF-8 Plain Text
  873. Duration: 2 h 17 min
  874. Bit rate: 69 b/s
  875. Frame rate: 0.214 FPS
  876. Count of elements: 1764
  877. Stream size: 70.1 KiB (0%)
  878. Title: Vietnamese [Full]
  879. Language: Vietnamese
  880. Default: No
  881. Forced: No
复制代码









回复

使用道具 举报

蓝光币
2457
发表于 2024-3-29 18:42:31 | 显示全部楼层
太好啦&萬分感謝版主的無私發佈分享%
回复

使用道具 举报

蓝光币
4
发表于 2024-3-29 21:34:52 | 显示全部楼层
谢谢楼主分享!我觉得蓝光电影网是注册对了!
回复

使用道具 举报

蓝光币
344
发表于 2024-3-30 00:18:51 | 显示全部楼层

既然你诚信诚意的推荐了,那我就勉为其难的看看吧!蓝光电影网不走平凡路。
回复

使用道具 举报

蓝光币
3
发表于 2024-4-4 16:51:20 | 显示全部楼层

楼主发贴辛苦了,谢谢楼主分享!我觉得蓝光电影网是注册对了!
回复

使用道具 举报

蓝光币
1029
发表于 2024-4-7 15:46:39 | 显示全部楼层
谢谢!店家辛苦了!赞一个
回复

使用道具 举报

懒得打字嘛,点击右侧快捷回复 【右侧内容,后台自定义】
您需要登录后才可以回帖 登录 | 立即加入

本版积分规则

Archiver| |网站地图

Copyright © 2024 Comsenz Inc. Powered by 蓝光电影网

本站内容由用户自主分享和转载自互联网,转载目的在于传递更多信息,并不代表本网赞同其观点和对其真实性负责。

如有侵权、违反国家法律政策行为,请联系我们,我们会第一时间及时清除和处理!

举报反馈邮箱:4k1080.com@gmail.com

快速回复 返回顶部 返回列表