找回密码

查看: 866|回复: 0

[剧情] 老狐狸[国语配音/中文字幕].Old.Fox.2023.1080p.Hami.WEB-DL.AAC.H264-TAG 6.15GB

[复制链接]
蓝光币
1917
发表于 2024-3-31 13:01:05 | 显示全部楼层 |阅读模式
老狐狸[国语配音/中笔墨幕].Old.Fox.2023.1080p.Hami.WEB-DL.AAC.H264-TAG 6.15GB-1.png

◎标  题 老狐狸
◎译  名 老狐狸没教我的事 / Old Fox
◎年  代 2023
◎产  地 中国台湾
◎类  别 剧情
◎语  言 汉语普通话
◎上映日期 2023-11-24(中国台湾) / 2023-10-27(东京国际电影节)
◎IMDb评分 7.7/10 (201人评价)
◎IMDb链接 https://www.imdb.com/title/tt29452517/
◎豆瓣评分 7.4/10 (282人评价)
◎豆瓣链接 https://movie.douban.com/subject/35611467/
◎片  长 112分钟
◎导  演 萧雅全 Ya-chuan Hsiao
◎编  剧 萧雅全 Ya-chuan Hsiao
◎演  员 白润音 Run-yin Bai
      刘冠廷 Kuan-ting Liu
      陈慕义 Akio Chen
      班铁翔 Tie-Hsiang Ban
      张再兴 Tsai-Hsing Chang
      庄益增 Cres Chuang
      傅孟柏 Meng-Po Fu
      黄健玮 Chien-wei Huang
      门胁麦 Mugi Kadowaki
      刘奕儿 Eugenie Liu
      温升豪 James Wen
      杨丽音 Li-Yin Yang

◎简  介
    故事发生在1989年全民皆股的年月,小男孩廖界与父亲廖泰来相依为命,他们相信人性本善,没发现天下正在改变。股市飙涨、物价翻倍,有人一夕暴富,有人意想到现实残暴;纯真老实的廖界父子属于后者。不意,他们碰上了聪明狡猾的“老狐狸”,命运门路能够截然分歧。财富与良知两条岔路,该怎样选?

  1. ##### MediaInfo ######
  2. General
  3. Unique ID : 157656260080819845143310346324191747 (0x1E5D0DC2BA78D53F87E88ADC3EAA03)
  4. Complete name : Old.Fox.2023.1080p.Hami.WEB-DL.AAC.H264-TAG.mkv
  5. Duration : 1 h 51 min
  6. Overall bit rate : 7 866 kb/s

  7. Video
  8. ID : 1
  9. Format : AVC
  10. Format/Info : Advanced Video Codec
  11. Format profile : High@L4
  12. Format settings : CABAC / 3 Ref Frames
  13. Format settings, CABAC : Yes
  14. Format settings, Reference frames : 3 frames
  15. Format settings, GOP : M=1, N=30
  16. Codec ID : V_MPEG4/ISO/AVC
  17. Duration : 1 h 51 min
  18. Bit rate : 7 872 kb/s
  19. Width : 1 920 pixels
  20. Height : 1 080 pixels
  21. Display aspect ratio : 16:9
  22. Frame rate mode : Constant
  23. Frame rate : 29.970 (30000/1001) FPS
  24. Color space : YUV
  25. Chroma subsampling : 4:2:0
  26. Bit depth : 8 bits
  27. Scan type : Progressive
  28. Bits/(Pixel*Frame) : 0.127
  29. Stream size : 6.04 GiB (98%)
  30. Writing library : x264 core 157 r2935 545de2f
  31. Encoding settings : cabac=1 / ref=3 / deblock=1:0:0 / analyse=0x3:0x113 / me=hex / subme=7 / psy=1 / psy_rd=1.00:0.00 / mixed_ref=1 / me_range=16 / chroma_me=1 / trellis=1 / 8x8dct=1 / cqm=0 / deadzone=21,11 / fast_pskip=1 / chroma_qp_offset=-2 / threads=34 / lookahead_threads=5 / sliced_threads=0 / nr=0 / decimate=1 / interlaced=0 / bluray_compat=0 / constrained_intra=0 / bframes=0 / weightp=2 / keyint=30 / keyint_min=16 / scenecut=0 / intra_refresh=0 / rc_lookahead=30 / rc=abr / mbtree=1 / bitrate=7872 / ratetol=1.0 / qcomp=0.60 / qpmin=0 / qpmax=69 / qpstep=4 / vbv_maxrate=8000 / vbv_bufsize=7872 / nal_hrd=none / filler=0 / ip_ratio=1.40 / aq=1:1.00
  32. Default : Yes
  33. Forced : No

  34. Audio
  35. ID : 2
  36. Format : AAC LC
  37. Format/Info : Advanced Audio Codec Low Complexity
  38. Codec ID : A_AAC-2
  39. Duration : 1 h 51 min
  40. Bit rate : 128 kb/s
  41. Channel(s) : 2 channels
  42. Channel layout : L R
  43. Sampling rate : 48.0 kHz
  44. Frame rate : 46.875 FPS (1024 SPF)
  45. Compression mode : Lossy
  46. Stream size : 103 MiB (2%)
  47. Default : Yes
  48. Forced : No
复制代码
老狐狸[国语配音/中笔墨幕].Old.Fox.2023.1080p.Hami.WEB-DL.AAC.H264-TAG 6.15GB-2.png 老狐狸[国语配音/中笔墨幕].Old.Fox.2023.1080p.Hami.WEB-DL.AAC.H264-TAG 6.15GB-3.png 老狐狸[国语配音/中笔墨幕].Old.Fox.2023.1080p.Hami.WEB-DL.AAC.H264-TAG 6.15GB-4.png 老狐狸[国语配音/中笔墨幕].Old.Fox.2023.1080p.Hami.WEB-DL.AAC.H264-TAG 6.15GB-5.png 老狐狸[国语配音/中笔墨幕].Old.Fox.2023.1080p.Hami.WEB-DL.AAC.H264-TAG 6.15GB-6.png 老狐狸[国语配音/中笔墨幕].Old.Fox.2023.1080p.Hami.WEB-DL.AAC.H264-TAG 6.15GB-7.png











回复

使用道具 举报

懒得打字嘛,点击右侧快捷回复 【右侧内容,后台自定义】
您需要登录后才可以回帖 登录 | 立即加入

本版积分规则

Archiver| |网站地图

Copyright © 2024 Comsenz Inc. Powered by 蓝光电影网

本站内容由用户自主分享和转载自互联网,转载目的在于传递更多信息,并不代表本网赞同其观点和对其真实性负责。

如有侵权、违反国家法律政策行为,请联系我们,我们会第一时间及时清除和处理!

举报反馈邮箱:4k1080.com@gmail.com

快速回复 返回顶部 返回列表