找回密码

查看: 300|回复: 0

[惊悚] 险恶.Sinister.2012.BluRay.1080p.DTS-HD.MA.7.1.AVC.REMUX-FraMeSToR 27.08GB

[复制链接]
蓝光币
1917
发表于 2024-4-2 11:58:17 | 显示全部楼层 |阅读模式


◎译  名 邪恶 / 邪灵(港) / 恶兆(台)
◎片  名 Sinister
◎年  代 2012
◎产  地 美国
◎类  别 惊悚 / 可骇
◎语  言 英语
◎上映日期 2012-10-12(美国)
◎IMDb评星  ★★★★★★★☆☆☆
◎IMDb评分  6.8/10 from 279,092 users
◎IMDb链接  https://www.imdb.com/title/tt1922777/
◎豆瓣评星 ★★★✦☆
◎豆瓣评分 6.9/10 from 31,941 users
◎豆瓣链接 https://movie.douban.com/subject/6875615/
◎片  长 110分钟
◎导  演 斯科特·德瑞克森 / Scott Derrickson
◎演  员 伊桑·霍克 / Ethan Hawke
      文森特·多诺费奥 / Vincent D'Onofrio
      詹姆斯·兰索恩 / James Ransone
      弗雷德·多尔顿·汤普森 / Fred Dalton Thompson
      克莱尔·弗利 / Clare Foley
      朱丽叶·赖伦斯 / Juliet Rylance
      麦克·霍·迪阿达李奥 / Michael Hall D'Addario | 饰 Trevor
◎编  剧 斯科特·德瑞克森 / Scott Derrickson
      C·罗伯特·嘉吉 / C. Robert Cargill
◎制  片  人 斯科特·德瑞克森 / Scott Derrickson
      杰森·布伦 / Jason Blum
◎音  乐 克里斯托弗·杨 / Christopher Young
◎简  介 
  埃里森·奥斯沃特(伊桑·霍克 Ethan Hawke 饰)是一个十几年前小著名望的犯罪小说作家,为了寻觅创作灵感,他不惜一次次搬入已经发生过命案的凶宅。时至本日,为了重现往昔的光辉,他再次带着妻子崔茜(Juliet Rylance 饰)以及一双后代特里夫(Michael Hall D'Addario 饰)和艾丝莉(Clare Foley 饰)搬入一栋凶宅。在整理阁楼时,他偶然发现一卷家庭录影带,里面记录着屋子前仆人一家欢畅幸运的生活瞬间以及他们被吊死在树上的惨烈画面。尔后的日子里,他一遍遍旁观录影带,从中寻觅罪犯的千丝万缕,而且在衡宇内的每个角落清查线索。
  在这一进程中,各类诡异事务相继在家人身上发生。埃里森此时已难以抽身……
◎幕后揭秘
  可骇片导演的回归
  本片导演斯科特·德瑞克森是一个很是热衷于惊悚、可骇题材影片的导演。他执导的长片童贞作《驱魔》就是一部备受好评的可骇片。2008年,他拍摄了带有科幻特点的惊悚片《地球停转之日》,虽然影片演员声势强大,可是影片自己却乏善可陈,斯科特·德瑞克森遭受了职业生活中的滑铁卢。4年以后,斯科特·德瑞克森带来了这部纯洁的可骇片《邪恶》,算是对他自己所擅长题材的一次回归。     谈及自己是怎样获得并处置这个题材的,斯科特·德瑞克森说:“很偶然的机遇,我的脑海里显现出了这个故事的情节,这大要就是影片起头的几分钟。我一下就被这个开首吸引住了。所以,第二天,我带着宿醉和头痛,把这个想法草率的地记录了下来。就这样,我就走进了《邪恶》的天下里。在这部电影里,我想表示出一种传统可骇片的特点,很多1960和1970年月的可骇片都给了我庞大的灵感。特别是《闪灵》这部电影,在我的设想中,这是一部文雅的、使人毛骨悚然的可骇片。带有极强的悬疑息争密的特点。这部电影中的配角,是一个有着黑暗曩昔的作家,他在一个已经出现过杀人犯的屋子里渐渐发现并想起了自己的曩昔。这个脚色和《闪灵》中杰克·尼科尔森所饰演的脚色很是类似,所以,《闪灵》是这部电影的最庞大的灵感来历。”
         在《邪恶》的论述中,可骇的来历并不纯真。在片中,可骇是从超自然、密屋谋杀、失忆症、品德割裂以及标记学里衍生出来的。应当说,这是一部混搭了各类元素和蔼概的可骇片。斯科特·德瑞克森说:“我喜幸亏电影里融进各类百般的元素,由于这样夹杂在一路,所能制造出的感情结果是最激烈的。所以我在这部电影里加入了很多种的可骇片的元素。这些元素并不是气概上的限制,而是我塑造人物、制造可骇空气所必必要利用的。和《闪灵》相比,《邪恶》在元素上简直是多了很多,有标记、有超自然、有闪回等等等等。我要做的,是拍一部合适当下观众爱好的影片,而不是拍摄一部和《闪灵》如出一辙的电影。对于可骇片来说,最可怕的终局,就是观众发现影片中一向无辜的配角就是凶手本人,这部电影就有这样的终局--这是我对《闪灵》的致敬。”
  伊桑·霍克的新应战
  挑选演员,就是挑选影片的质感。对于一部可骇片来说,更是如此。假如能找到气质阴霾、眼神深不成测的男演员来饰演《邪恶》中的作家一角的话,那末自然会事半功倍。不外,要从好莱坞选出这么一位男演员,却让斯科特·德瑞克森犯了难。斯科特·德瑞克森说:“我在撰写剧本的时辰,就没有把这个脚色限制在某一个大概是某几个特定的男演员身上,那样做,只会使我没有法子铺开手脚撰写剧本。在我心无旁骛地写完这个剧本以后,就要起头为其挑选演员了。在这个环节上,我碰到了大麻烦,由于没有定式,所以也就无从动手。我头疼了好几天。由于这个脚色在电影的一路头就要接管道德上的考验,而且还需要表示出充足的表演可骇片的天赋,还需要他能吸引观众,而且他还要有不错的演技。我斟酌了好几天,还没有定论,因而我就写Email给了制片人杰森·布朗姆。杰森给我保举了伊桑·霍克,他告诉我,伊桑是最好的挑选。就这样,我敲定了伊桑·霍克来主演这部电影。”
  伊桑的主演,并不轻松。假如要拿《闪灵》来做例如的话,伊桑在这部电影里所饰演的脚色,是《闪灵》中杰克·尼科尔森和谢莉·杜瓦尔的脚色的综合。斯科特·德瑞克森说:“为了能让伊桑饰演好这个脚色,我们在筹拍的时辰,让他看了几遍《闪灵》,并和他一路造访了谢莉,向她就教了一些《闪灵》的题目。一路头,我并不清楚该若何执导伊桑来饰演这个脚色。后来,还是在《闪灵》的启发下,我大白要把伊桑置于一点点发现工作真相的地步,也只要这样,这个故事才最有看点。我让伊桑一点点表示出来一个侦察和一个丧芥蒂狂的人的味道,他做到了这点,这很是棒。”
  伊桑·霍克这几年频频在影片中饰演作家,此次,他在《邪恶》中饰演的是一个事去了灵感,身陷杀人谜案当中的倒霉作家。对于脚色和影片,伊桑说:“这部电影很成心机,剧本也很棒,是一层一层一点一点带你走进事务真相的。而且,整件事的根本都是从一些录像带里找到的,这就更增加了影片的虚幻性。而且一些超自然的元素的加入,使得全部故事更有那种可骇和谜团的味道。”
  1. General
  2. Unique ID                                : 320174703544610007918258242641095690729 (0xF0DF67A7791E8C294AC939AC115609E9)
  3. Complete name                            : Z:\Nedladdat\Anthelion\Sinister.2012.BluRay.1080p.DTS-HD.MA.7.1.AVC.REMUX-FraMeSToR.mkv
  4. Format                                   : Matroska
  5. Format version                           : Version 4 / Version 2
  6. File size                                : 27.1 GiB
  7. Duration                                 : 1 h 50 min
  8. Overall bit rate mode                    : Variable
  9. Overall bit rate                         : 35.2 Mb/s
  10. Movie name                               : Sinister (2012)
  11. Encoded date                             : UTC 2023-10-05 01:03:50
  12. Writing application                      : mkvmerge v79.0 ('Funeral Pyres') 64-bit
  13. Writing library                          : libebml v1.4.4 + libmatroska v1.7.1
  14. IMDB                                     : tt1922777
  15. TMDB                                     : movie/82507
  16. Video
  17. ID                                       : 1
  18. Format                                   : AVC
  19. Format/Info                              : Advanced Video Codec
  20. Format profile                           : High@L4.1
  21. Format settings, CABAC                   : Yes
  22. Format settings, ReFrames                : 2 frames
  23. Format settings, GOP                     : M=1, N=10
  24. Codec ID                                 : V_MPEG4/ISO/AVC
  25. Duration                                 : 1 h 50 min
  26. Bit rate mode                            : Variable
  27. Bit rate                                 : 29.8 Mb/s
  28. Width                                    : 1 920 pixels
  29. Height                                   : 1 080 pixels
  30. Display aspect ratio                     : 16:9
  31. Frame rate mode                          : Constant
  32. Frame rate                               : 23.976 (24000/1001) FPS
  33. Color space                              : YUV
  34. Chroma subsampling                       : 4:2:0
  35. Bit depth                                : 8 bits
  36. Scan type                                : Progressive
  37. Bits/(Pixel*Frame)                       : 0.599
  38. Stream size                              : 22.9 GiB (85%)
  39. Default                                  : Yes
  40. Forced                                   : No
  41. Audio #1
  42. ID                                       : 2
  43. Format                                   : DTS
  44. Format/Info                              : Digital Theater Systems
  45. Format profile                           : MA / Core
  46. Mode                                     : 16
  47. Format settings, Endianness              : Big
  48. Codec ID                                 : A_DTS
  49. Duration                                 : 1 h 50 min
  50. Bit rate mode                            : Variable / Constant
  51. Bit rate                                 : 4 856 kb/s / 1 509 kb/s
  52. Channel(s)                               : 8 channels / 6 channels
  53. Channel positions                        : Front: L C R, Side: L R, Back: L R, LFE / Front: L C R, Side: L R, LFE
  54. Sampling rate                            : 48.0 kHz
  55. Frame rate                               : 93.750 FPS (512 spf)
  56. Bit depth                                : 24 bits
  57. Compression mode                         : Lossless / Lossy
  58. Stream size                              : 3.73 GiB (14%)
  59. Title                                    : DTS-HD MA 7.1
  60. Language                                 : English
  61. Default                                  : Yes
  62. Forced                                   : No
  63. Audio #2
  64. ID                                       : 3
  65. Format                                   : AC-3
  66. Format/Info                              : Audio Coding 3
  67. Mode extension                           : CM (complete main)
  68. Format settings, Endianness              : Big
  69. Codec ID                                 : A_AC3
  70. Duration                                 : 1 h 50 min
  71. Bit rate mode                            : Constant
  72. Bit rate                                 : 192 kb/s
  73. Channel(s)                               : 2 channels
  74. Channel positions                        : Front: L R
  75. Sampling rate                            : 48.0 kHz
  76. Frame rate                               : 31.250 FPS (1536 spf)
  77. Bit depth                                : 16 bits
  78. Compression mode                         : Lossy
  79. Stream size                              : 151 MiB (1%)
  80. Title                                    : Commentary by Director Scott Derrickson
  81. Language                                 : English
  82. Default                                  : No
  83. Forced                                   : No
  84. Audio #3
  85. ID                                       : 4
  86. Format                                   : AC-3
  87. Format/Info                              : Audio Coding 3
  88. Mode extension                           : CM (complete main)
  89. Format settings, Endianness              : Big
  90. Codec ID                                 : A_AC3
  91. Duration                                 : 1 h 50 min
  92. Bit rate mode                            : Constant
  93. Bit rate                                 : 192 kb/s
  94. Channel(s)                               : 2 channels
  95. Channel positions                        : Front: L R
  96. Sampling rate                            : 48.0 kHz
  97. Frame rate                               : 31.250 FPS (1536 spf)
  98. Bit depth                                : 16 bits
  99. Compression mode                         : Lossy
  100. Stream size                              : 151 MiB (1%)
  101. Title                                    : Commentary by Writers Scott Derrickson and C. Robert Cargill
  102. Language                                 : English
  103. Default                                  : No
  104. Forced                                   : No
  105. Text #1
  106. ID                                       : 5
  107. Format                                   : PGS
  108. Codec ID                                 : S_HDMV/PGS
  109. Codec ID/Info                            : Picture based subtitle format used on BDs/HD-DVDs
  110. Duration                                 : 1 h 37 min
  111. Bit rate                                 : 32.3 kb/s
  112. Count of elements                        : 1946
  113. Stream size                              : 22.7 MiB (0%)
  114. Title                                    : English
  115. Language                                 : English
  116. Default                                  : No
  117. Forced                                   : No
  118. Text #2
  119. ID                                       : 6
  120. Format                                   : PGS
  121. Codec ID                                 : S_HDMV/PGS
  122. Codec ID/Info                            : Picture based subtitle format used on BDs/HD-DVDs
  123. Duration                                 : 1 h 38 min
  124. Bit rate                                 : 34.6 kb/s
  125. Count of elements                        : 2498
  126. Stream size                              : 24.4 MiB (0%)
  127. Title                                    : English (SDH)
  128. Language                                 : English
  129. Default                                  : No
  130. Forced                                   : No
  131. Text #3
  132. ID                                       : 7
  133. Format                                   : PGS
  134. Codec ID                                 : S_HDMV/PGS
  135. Codec ID/Info                            : Picture based subtitle format used on BDs/HD-DVDs
  136. Duration                                 : 1 h 47 min
  137. Bit rate                                 : 23.2 kb/s
  138. Count of elements                        : 1806
  139. Stream size                              : 17.8 MiB (0%)
  140. Title                                    : French (Parisian)
  141. Language                                 : French
  142. Default                                  : No
  143. Forced                                   : No
  144. Text #4
  145. ID                                       : 8
  146. Format                                   : PGS
  147. Codec ID                                 : S_HDMV/PGS
  148. Codec ID/Info                            : Picture based subtitle format used on BDs/HD-DVDs
  149. Duration                                 : 1 h 38 min
  150. Bit rate                                 : 26.1 kb/s
  151. Count of elements                        : 1554
  152. Stream size                              : 18.3 MiB (0%)
  153. Title                                    : German
  154. Language                                 : German
  155. Default                                  : No
  156. Forced                                   : No
  157. Text #5
  158. ID                                       : 9
  159. Format                                   : PGS
  160. Codec ID                                 : S_HDMV/PGS
  161. Codec ID/Info                            : Picture based subtitle format used on BDs/HD-DVDs
  162. Duration                                 : 1 h 41 min
  163. Bit rate                                 : 28.0 kb/s
  164. Count of elements                        : 1661
  165. Stream size                              : 20.3 MiB (0%)
  166. Title                                    : Italian
  167. Language                                 : Italian
  168. Default                                  : No
  169. Forced                                   : No
  170. Text #6
  171. ID                                       : 10
  172. Format                                   : PGS
  173. Codec ID                                 : S_HDMV/PGS
  174. Codec ID/Info                            : Picture based subtitle format used on BDs/HD-DVDs
  175. Duration                                 : 1 h 43 min
  176. Bit rate                                 : 23.8 kb/s
  177. Count of elements                        : 1253
  178. Stream size                              : 17.6 MiB (0%)
  179. Title                                    : Portuguese (Brazilian)
  180. Language                                 : Portuguese
  181. Default                                  : No
  182. Forced                                   : No
  183. Text #7
  184. ID                                       : 11
  185. Format                                   : PGS
  186. Codec ID                                 : S_HDMV/PGS
  187. Codec ID/Info                            : Picture based subtitle format used on BDs/HD-DVDs
  188. Duration                                 : 1 h 41 min
  189. Bit rate                                 : 8 391 b/s
  190. Count of elements                        : 1874
  191. Stream size                              : 6.10 MiB (0%)
  192. Title                                    : Russian
  193. Language                                 : Russian
  194. Default                                  : No
  195. Forced                                   : No
  196. Text #8
  197. ID                                       : 12
  198. Format                                   : PGS
  199. Codec ID                                 : S_HDMV/PGS
  200. Codec ID/Info                            : Picture based subtitle format used on BDs/HD-DVDs
  201. Duration                                 : 1 h 41 min
  202. Bit rate                                 : 25.1 kb/s
  203. Count of elements                        : 1680
  204. Stream size                              : 18.2 MiB (0%)
  205. Title                                    : Spanish (Latin American)
  206. Language                                 : Spanish
  207. Default                                  : No
  208. Forced                                   : No
  209. Menu
  210. 00:00:00.000                             : en:Chapter 1
  211. 00:04:47.245                             : en:Chapter 2
  212. 00:09:45.668                             : en:Chapter 3
  213. 00:13:06.244                             : en:Chapter 4
  214. 00:19:19.200                             : en:Chapter 5
  215. 00:23:14.852                             : en:Chapter 6
  216. 00:27:25.602                             : en:Chapter 7
  217. 00:32:18.770                             : en:Chapter 8
  218. 00:37:56.357                             : en:Chapter 9
  219. 00:43:38.908                             : en:Chapter 10
  220. 00:48:51.428                             : en:Chapter 11
  221. 00:53:18.487                             : en:Chapter 12
  222. 00:56:47.529                             : en:Chapter 13
  223. 00:59:39.492                             : en:Chapter 14
  224. 01:04:45.340                             : en:Chapter 15
  225. 01:07:20.453                             : en:Chapter 16
  226. 01:13:08.217                             : en:Chapter 17
  227. 01:17:21.136                             : en:Chapter 18
  228. 01:21:59.623                             : en:Chapter 19
  229. 01:26:41.363                             : en:Chapter 20
  230. 01:31:01.080                             : en:Chapter 21
  231. 01:37:02.942                             : en:Chapter 22
  232. 01:40:47.833                             : en:Chapter 23
  233. 01:43:58.482                             : en:Chapter 24
复制代码









回复

使用道具 举报

懒得打字嘛,点击右侧快捷回复 【右侧内容,后台自定义】
您需要登录后才可以回帖 登录 | 立即加入

本版积分规则

Archiver| |网站地图

Copyright © 2024 Comsenz Inc. Powered by 蓝光电影网

本站内容由用户自主分享和转载自互联网,转载目的在于传递更多信息,并不代表本网赞同其观点和对其真实性负责。

如有侵权、违反国家法律政策行为,请联系我们,我们会第一时间及时清除和处理!

举报反馈邮箱:4k1080.com@gmail.com

快速回复 返回顶部 返回列表