找回密码

查看: 840|回复: 5

寄生兽:灰色部队 [全6集][中字].Parasyte.The.Grey.S01.2024.2160p.NF.WEB-DL.DDP5.1.Atmos.H.265-TAG 26.91GB

[复制链接]
蓝光币
1917
发表于 2024-4-7 19:52:18 | 显示全部楼层 |阅读模式
寄生兽:灰色军队 [全6集][中字].Parasyte.The.Grey.S01.2024.2160p.NF.WEB-DL.DDP5.1.Atmos.H.265-TAG 26.91GB-1.jpg

* 片    名   寄生兽:灰色军队
* 又    名   寄生兽:The Gray / Parasyte: The Grey
* 分    类   TVSeries
* 制    片   韩国
* 类    型   惊悚
* 语    言   韩语
* 首    映   2024-04-05
* 集    数   6
* IMDB    https://www.imdb.com/title/tt21874396/
* 豆    瓣   https://movie.douban.com/subject/35954429/
* 导    演   延尚昊 Sang-ho Yeon

* 编    剧   延尚昊 Sang-ho Yeon
                 柳勇在 Yoo Yong Jae
                 岩明均 Hitoshi Iwaaki

* 主    演   全昭霓 Jeon So-nee
                 具教焕 Kyo-hwan Koo
                 李贞贤 Jung-hyun Lee
                 权海骁 Hae-hyo Kwon
                 金仁权 In-kwon Kim

* 剧    情   
   
             不明寄生生物强行侵占人类宿主的身材并夺得气力,人类必须挺身作战,匹敌日益强大的威胁。

  1. General
  2. Unique ID : 320585427533959051275090738352936055809 (0xF12E81E90AAA832CDF09A0052F8DF401)
  3. Complete name : Parasyte.The.Grey.S01E06.2024.2160p.NF.WEB-DL.DDP5.1.Atmos.H.265-TAG.mkv
  4. Format : Matroska
  5. Format version : Version 4
  6. File size : 4.72 GiB
  7. Duration : 52 min 24 s
  8. Overall bit rate : 12.9 Mb/s
  9. Frame rate : 23.976 FPS
  10. Writing application : mkvmerge v79.0 (\'Funeral Pyres\') 64-bit
  11. Writing library : libebml v1.4.4 + libmatroska v1.7.1

  12. Video
  13. ID : 1
  14. Format : HEVC
  15. Format/Info : High Efficiency Video Coding
  16. Format profile : Main 10@L5@Main
  17. Codec ID : V_MPEGH/ISO/HEVC
  18. Duration : 52 min 24 s
  19. Bit rate : 11.3 Mb/s
  20. Width : 3 840 pixels
  21. Height : 2 160 pixels
  22. Display aspect ratio : 16:9
  23. Frame rate mode : Constant
  24. Frame rate : 23.976 (24000/1001) FPS
  25. Color space : YUV
  26. Chroma subsampling : 4:2:0
  27. Bit depth : 10 bits
  28. Bits/(Pixel*Frame) : 0.057
  29. Stream size : 4.15 GiB (88%)
  30. Default : Yes
  31. Forced : No
  32. Color range : Limited
  33. Color primaries : BT.709
  34. Transfer characteristics : BT.709
  35. Matrix coefficients : BT.709

  36. Audio #1
  37. ID : 2
  38. Format : E-AC-3 JOC
  39. Format/Info : Enhanced AC-3 with Joint Object Coding
  40. Commercial name : Dolby Digital Plus with Dolby Atmos
  41. Codec ID : A_EAC3
  42. Duration : 52 min 24 s
  43. Bit rate mode : Constant
  44. Bit rate : 768 kb/s
  45. Channel(s) : 6 channels
  46. Channel layout : L R C LFE Ls Rs
  47. Sampling rate : 48.0 kHz
  48. Frame rate : 31.250 FPS (1536 SPF)
  49. Compression mode : Lossy
  50. Stream size : 288 MiB (6%)
  51. Title : 한국어 [Dolby Digital Plus with Dolby Atmos 5.1]
  52. Language : Korean
  53. Service kind : Complete Main
  54. Default : Yes
  55. Forced : No
  56. Complexity index : 16
  57. Number of dynamic objects : 15
  58. Bed channel count : 1 channel
  59. Bed channel configuration : LFE

  60. Audio #2
  61. ID : 3
  62. Format : E-AC-3 JOC
  63. Format/Info : Enhanced AC-3 with Joint Object Coding
  64. Commercial name : Dolby Digital Plus with Dolby Atmos
  65. Codec ID : A_EAC3
  66. Duration : 52 min 24 s
  67. Bit rate mode : Constant
  68. Bit rate : 768 kb/s
  69. Channel(s) : 6 channels
  70. Channel layout : L R C LFE Ls Rs
  71. Sampling rate : 48.0 kHz
  72. Frame rate : 31.250 FPS (1536 SPF)
  73. Compression mode : Lossy
  74. Stream size : 288 MiB (6%)
  75. Title : English [Dolby Digital Plus with Dolby Atmos 5.1]
  76. Language : English
  77. Service kind : Complete Main
  78. Default : No
  79. Forced : No
  80. Complexity index : 16
  81. Number of dynamic objects : 15
  82. Bed channel count : 1 channel
  83. Bed channel configuration : LFE

  84. Text #1
  85. ID : 4
  86. Format : UTF-8
  87. Codec ID : S_TEXT/UTF8
  88. Codec ID/Info : UTF-8 Plain Text
  89. Duration : 47 min 38 s
  90. Bit rate : 87 b/s
  91. Frame rate : 0.292 FPS
  92. Count of elements : 835
  93. Stream size : 30.6 KiB (0%)
  94. Title : 한국어 [SDH]
  95. Language : Korean
  96. Default : No
  97. Forced : No

  98. Text #2
  99. ID : 5
  100. Format : UTF-8
  101. Codec ID : S_TEXT/UTF8
  102. Codec ID/Info : UTF-8 Plain Text
  103. Duration : 49 min 57 s
  104. Bit rate : 45 b/s
  105. Frame rate : 0.180 FPS
  106. Count of elements : 538
  107. Stream size : 16.8 KiB (0%)
  108. Title : 中文(简体)
  109. Language : Chinese
  110. Default : Yes
  111. Forced : No

  112. Text #3
  113. ID : 6
  114. Format : UTF-8
  115. Codec ID : S_TEXT/UTF8
  116. Codec ID/Info : UTF-8 Plain Text
  117. Duration : 49 min 56 s
  118. Bit rate : 43 b/s
  119. Frame rate : 0.189 FPS
  120. Count of elements : 566
  121. Stream size : 15.8 KiB (0%)
  122. Title : 中文 (繁體)
  123. Language : Chinese
  124. Default : No
  125. Forced : No

  126. Text #4
  127. ID : 7
  128. Format : UTF-8
  129. Codec ID : S_TEXT/UTF8
  130. Codec ID/Info : UTF-8 Plain Text
  131. Duration : 49 min 56 s
  132. Bit rate : 80 b/s
  133. Frame rate : 0.178 FPS
  134. Count of elements : 534
  135. Stream size : 29.5 KiB (0%)
  136. Title : العربية
  137. Language : Arabic
  138. Default : No
  139. Forced : No

  140. Text #5
  141. ID : 8
  142. Format : UTF-8
  143. Codec ID : S_TEXT/UTF8
  144. Codec ID/Info : UTF-8 Plain Text
  145. Duration : 49 min 56 s
  146. Bit rate : 40 b/s
  147. Frame rate : 0.170 FPS
  148. Count of elements : 510
  149. Stream size : 14.9 KiB (0%)
  150. Title : Català
  151. Language : Catalan
  152. Default : No
  153. Forced : No

  154. Text #6
  155. ID : 9
  156. Format : UTF-8
  157. Codec ID : S_TEXT/UTF8
  158. Codec ID/Info : UTF-8 Plain Text
  159. Duration : 47 min 12 s
  160. Bit rate : 54 b/s
  161. Frame rate : 0.187 FPS
  162. Count of elements : 530
  163. Stream size : 18.8 KiB (0%)
  164. Title : Čeština
  165. Language : Czech
  166. Default : No
  167. Forced : No

  168. Text #7
  169. ID : 10
  170. Format : UTF-8
  171. Codec ID : S_TEXT/UTF8
  172. Codec ID/Info : UTF-8 Plain Text
  173. Duration : 49 min 56 s
  174. Bit rate : 43 b/s
  175. Frame rate : 0.159 FPS
  176. Count of elements : 478
  177. Stream size : 16.1 KiB (0%)
  178. Title : Dansk
  179. Language : Danish
  180. Default : No
  181. Forced : No

  182. Text #8
  183. ID : 11
  184. Format : UTF-8
  185. Codec ID : S_TEXT/UTF8
  186. Codec ID/Info : UTF-8 Plain Text
  187. Duration : 47 min 14 s
  188. Bit rate : 49 b/s
  189. Frame rate : 0.180 FPS
  190. Count of elements : 509
  191. Stream size : 17.1 KiB (0%)
  192. Title : Deutsch
  193. Language : German
  194. Default : No
  195. Forced : No

  196. Text #9
  197. ID : 12
  198. Format : UTF-8
  199. Codec ID : S_TEXT/UTF8
  200. Codec ID/Info : UTF-8 Plain Text
  201. Duration : 49 min 56 s
  202. Bit rate : 77 b/s
  203. Frame rate : 0.176 FPS
  204. Count of elements : 527
  205. Stream size : 28.4 KiB (0%)
  206. Title : Ελληνικά
  207. Language : Greek
  208. Default : No
  209. Forced : No

  210. Text #10
  211. ID : 13
  212. Format : UTF-8
  213. Codec ID : S_TEXT/UTF8
  214. Codec ID/Info : UTF-8 Plain Text
  215. Duration : 47 min 14 s
  216. Bit rate : 55 b/s
  217. Frame rate : 0.195 FPS
  218. Count of elements : 554
  219. Stream size : 19.2 KiB (0%)
  220. Title : English
  221. Language : English
  222. Default : No
  223. Forced : No

  224. Text #11
  225. ID : 14
  226. Format : UTF-8
  227. Codec ID : S_TEXT/UTF8
  228. Codec ID/Info : UTF-8 Plain Text
  229. Duration : 47 min 13 s
  230. Bit rate : 54 b/s
  231. Frame rate : 0.186 FPS
  232. Count of elements : 526
  233. Stream size : 19.0 KiB (0%)
  234. Title : Español
  235. Language : Spanish
  236. Default : No
  237. Forced : No

  238. Text #12
  239. ID : 15
  240. Format : UTF-8
  241. Codec ID : S_TEXT/UTF8
  242. Codec ID/Info : UTF-8 Plain Text
  243. Duration : 49 min 56 s
  244. Bit rate : 42 b/s
  245. Frame rate : 0.173 FPS
  246. Count of elements : 518
  247. Stream size : 15.4 KiB (0%)
  248. Title : Español (España)
  249. Language : Spanish
  250. Default : No
  251. Forced : No

  252. Text #13
  253. ID : 16
  254. Format : UTF-8
  255. Codec ID : S_TEXT/UTF8
  256. Codec ID/Info : UTF-8 Plain Text
  257. Duration : 49 min 56 s
  258. Bit rate : 41 b/s
  259. Frame rate : 0.177 FPS
  260. Count of elements : 530
  261. Stream size : 15.4 KiB (0%)
  262. Title : Euskara
  263. Language : Basque
  264. Default : No
  265. Forced : No

  266. Text #14
  267. ID : 17
  268. Format : UTF-8
  269. Codec ID : S_TEXT/UTF8
  270. Codec ID/Info : UTF-8 Plain Text
  271. Duration : 49 min 56 s
  272. Bit rate : 43 b/s
  273. Frame rate : 0.153 FPS
  274. Count of elements : 459
  275. Stream size : 15.9 KiB (0%)
  276. Title : Suomi
  277. Language : Finnish
  278. Default : No
  279. Forced : No

  280. Text #15
  281. ID : 18
  282. Format : UTF-8
  283. Codec ID : S_TEXT/UTF8
  284. Codec ID/Info : UTF-8 Plain Text
  285. Duration : 49 min 56 s
  286. Bit rate : 46 b/s
  287. Frame rate : 0.175 FPS
  288. Count of elements : 525
  289. Stream size : 17.0 KiB (0%)
  290. Title : Suomi (Israel)
  291. Language : Finnish
  292. Default : No
  293. Forced : No

  294. Text #16
  295. ID : 19
  296. Format : UTF-8
  297. Codec ID : S_TEXT/UTF8
  298. Codec ID/Info : UTF-8 Plain Text
  299. Duration : 49 min 56 s
  300. Bit rate : 45 b/s
  301. Frame rate : 0.176 FPS
  302. Count of elements : 527
  303. Stream size : 16.8 KiB (0%)
  304. Title : Français
  305. Language : French
  306. Default : No
  307. Forced : No

  308. Text #17
  309. ID : 20
  310. Format : UTF-8
  311. Codec ID : S_TEXT/UTF8
  312. Codec ID/Info : UTF-8 Plain Text
  313. Duration : 49 min 56 s
  314. Bit rate : 40 b/s
  315. Frame rate : 0.179 FPS
  316. Count of elements : 537
  317. Stream size : 14.8 KiB (0%)
  318. Title : Galego
  319. Language : Galician
  320. Default : No
  321. Forced : No

  322. Text #18
  323. ID : 21
  324. Format : UTF-8
  325. Codec ID : S_TEXT/UTF8
  326. Codec ID/Info : UTF-8 Plain Text
  327. Duration : 49 min 55 s
  328. Bit rate : 74 b/s
  329. Frame rate : 0.180 FPS
  330. Count of elements : 538
  331. Stream size : 27.2 KiB (0%)
  332. Title : עברית
  333. Language : Hebrew
  334. Default : No
  335. Forced : No

  336. Text #19
  337. ID : 22
  338. Format : UTF-8
  339. Codec ID : S_TEXT/UTF8
  340. Codec ID/Info : UTF-8 Plain Text
  341. Duration : 49 min 57 s
  342. Bit rate : 39 b/s
  343. Frame rate : 0.160 FPS
  344. Count of elements : 480
  345. Stream size : 14.6 KiB (0%)
  346. Title : Hrvatski
  347. Language : Croatian
  348. Default : No
  349. Forced : No

  350. Text #20
  351. ID : 23
  352. Format : UTF-8
  353. Codec ID : S_TEXT/UTF8
  354. Codec ID/Info : UTF-8 Plain Text
  355. Duration : 49 min 56 s
  356. Bit rate : 44 b/s
  357. Frame rate : 0.169 FPS
  358. Count of elements : 506
  359. Stream size : 16.4 KiB (0%)
  360. Title : Magyar
  361. Language : Hungarian
  362. Default : No
  363. Forced : No

  364. Text #21
  365. ID : 24
  366. Format : UTF-8
  367. Codec ID : S_TEXT/UTF8
  368. Codec ID/Info : UTF-8 Plain Text
  369. Duration : 47 min 14 s
  370. Bit rate : 51 b/s
  371. Frame rate : 0.193 FPS
  372. Count of elements : 547
  373. Stream size : 17.8 KiB (0%)
  374. Title : Bahasa Indonesia
  375. Language : Indonesian
  376. Default : No
  377. Forced : No

  378. Text #22
  379. ID : 25
  380. Format : UTF-8
  381. Codec ID : S_TEXT/UTF8
  382. Codec ID/Info : UTF-8 Plain Text
  383. Duration : 47 min 14 s
  384. Bit rate : 59 b/s
  385. Frame rate : 0.157 FPS
  386. Count of elements : 445
  387. Stream size : 20.6 KiB (0%)
  388. Title : Italiano
  389. Language : Italian
  390. Default : No
  391. Forced : No

  392. Text #23
  393. ID : 26
  394. Format : UTF-8
  395. Codec ID : S_TEXT/UTF8
  396. Codec ID/Info : UTF-8 Plain Text
  397. Duration : 49 min 57 s
  398. Bit rate : 40 b/s
  399. Frame rate : 0.166 FPS
  400. Count of elements : 498
  401. Stream size : 14.7 KiB (0%)
  402. Title : 日本語
  403. Language : Japanese
  404. Default : No
  405. Forced : No

  406. Text #24
  407. ID : 27
  408. Format : UTF-8
  409. Codec ID : S_TEXT/UTF8
  410. Codec ID/Info : UTF-8 Plain Text
  411. Duration : 47 min 14 s
  412. Bit rate : 43 b/s
  413. Frame rate : 0.188 FPS
  414. Count of elements : 534
  415. Stream size : 14.9 KiB (0%)
  416. Title : Bahasa Malaysia
  417. Language : Malay
  418. Default : No
  419. Forced : No

  420. Text #25
  421. ID : 28
  422. Format : UTF-8
  423. Codec ID : S_TEXT/UTF8
  424. Codec ID/Info : UTF-8 Plain Text
  425. Duration : 49 min 56 s
  426. Bit rate : 43 b/s
  427. Frame rate : 0.174 FPS
  428. Count of elements : 521
  429. Stream size : 15.8 KiB (0%)
  430. Title : Norsk Bokmål
  431. Language : Norwegian Bokmal
  432. Default : No
  433. Forced : No

  434. Text #26
  435. ID : 29
  436. Format : UTF-8
  437. Codec ID : S_TEXT/UTF8
  438. Codec ID/Info : UTF-8 Plain Text
  439. Duration : 49 min 56 s
  440. Bit rate : 46 b/s
  441. Frame rate : 0.154 FPS
  442. Count of elements : 462
  443. Stream size : 17.0 KiB (0%)
  444. Title : Nederlands
  445. Language : Dutch
  446. Default : No
  447. Forced : No

  448. Text #27
  449. ID : 30
  450. Format : UTF-8
  451. Codec ID : S_TEXT/UTF8
  452. Codec ID/Info : UTF-8 Plain Text
  453. Duration : 49 min 55 s
  454. Bit rate : 40 b/s
  455. Frame rate : 0.176 FPS
  456. Count of elements : 528
  457. Stream size : 15.0 KiB (0%)
  458. Title : Polski
  459. Language : Polish
  460. Default : No
  461. Forced : No

  462. Text #28
  463. ID : 31
  464. Format : UTF-8
  465. Codec ID : S_TEXT/UTF8
  466. Codec ID/Info : UTF-8 Plain Text
  467. Duration : 49 min 56 s
  468. Bit rate : 45 b/s
  469. Frame rate : 0.172 FPS
  470. Count of elements : 515
  471. Stream size : 16.5 KiB (0%)
  472. Title : Português
  473. Language : Portuguese
  474. Default : No
  475. Forced : No

  476. Text #29
  477. ID : 32
  478. Format : UTF-8
  479. Codec ID : S_TEXT/UTF8
  480. Codec ID/Info : UTF-8 Plain Text
  481. Duration : 47 min 13 s
  482. Bit rate : 53 b/s
  483. Frame rate : 0.190 FPS
  484. Count of elements : 538
  485. Stream size : 18.4 KiB (0%)
  486. Title : Português (Brasil)
  487. Language : Portuguese
  488. Default : No
  489. Forced : No

  490. Text #30
  491. ID : 33
  492. Format : UTF-8
  493. Codec ID : S_TEXT/UTF8
  494. Codec ID/Info : UTF-8 Plain Text
  495. Duration : 49 min 56 s
  496. Bit rate : 44 b/s
  497. Frame rate : 0.172 FPS
  498. Count of elements : 516
  499. Stream size : 16.2 KiB (0%)
  500. Title : Română
  501. Language : Romanian
  502. Default : No
  503. Forced : No

  504. Text #31
  505. ID : 34
  506. Format : UTF-8
  507. Codec ID : S_TEXT/UTF8
  508. Codec ID/Info : UTF-8 Plain Text
  509. Duration : 49 min 56 s
  510. Bit rate : 67 b/s
  511. Frame rate : 0.168 FPS
  512. Count of elements : 503
  513. Stream size : 24.7 KiB (0%)
  514. Title : Русский
  515. Language : Russian
  516. Default : No
  517. Forced : No

  518. Text #32
  519. ID : 35
  520. Format : UTF-8
  521. Codec ID : S_TEXT/UTF8
  522. Codec ID/Info : UTF-8 Plain Text
  523. Duration : 49 min 56 s
  524. Bit rate : 41 b/s
  525. Frame rate : 0.150 FPS
  526. Count of elements : 450
  527. Stream size : 15.2 KiB (0%)
  528. Title : Svenska
  529. Language : Swedish
  530. Default : No
  531. Forced : No

  532. Text #33
  533. ID : 36
  534. Format : UTF-8
  535. Codec ID : S_TEXT/UTF8
  536. Codec ID/Info : UTF-8 Plain Text
  537. Duration : 49 min 53 s
  538. Bit rate : 123 b/s
  539. Frame rate : 0.179 FPS
  540. Count of elements : 536
  541. Stream size : 45.3 KiB (0%)
  542. Title : ไทย
  543. Language : Thai
  544. Default : No
  545. Forced : No

  546. Text #34
  547. ID : 37
  548. Format : UTF-8
  549. Codec ID : S_TEXT/UTF8
  550. Codec ID/Info : UTF-8 Plain Text
  551. Duration : 49 min 56 s
  552. Bit rate : 43 b/s
  553. Frame rate : 0.157 FPS
  554. Count of elements : 471
  555. Stream size : 15.9 KiB (0%)
  556. Title : Türkçe
  557. Language : Turkish
  558. Default : No
  559. Forced : No

  560. Text #35
  561. ID : 38
  562. Format : UTF-8
  563. Codec ID : S_TEXT/UTF8
  564. Codec ID/Info : UTF-8 Plain Text
  565. Duration : 49 min 56 s
  566. Bit rate : 71 b/s
  567. Frame rate : 0.176 FPS
  568. Count of elements : 527
  569. Stream size : 26.2 KiB (0%)
  570. Title : Українська
  571. Language : Ukrainian
  572. Default : No
  573. Forced : No

  574. Text #36
  575. ID : 39
  576. Format : UTF-8
  577. Codec ID : S_TEXT/UTF8
  578. Codec ID/Info : UTF-8 Plain Text
  579. Duration : 49 min 58 s
  580. Bit rate : 59 b/s
  581. Frame rate : 0.155 FPS
  582. Count of elements : 466
  583. Stream size : 21.8 KiB (0%)
  584. Title : Tiếng Việt
  585. Language : Vietnamese
  586. Default : No
  587. Forced : No

  588. Menu
  589. 00:00:00.000 : en:Part 01
  590. 00:09:21.000 : en:Intro
  591. 00:09:54.000 : en:Part 02
  592. 00:47:51.000 : en:Credits
复制代码
寄生兽:灰色军队 [全6集][中字].Parasyte.The.Grey.S01.2024.2160p.NF.WEB-DL.DDP5.1.Atmos.H.265-TAG 26.91GB-2.jpg









回复

使用道具 举报

蓝光币
64
发表于 2024-4-10 09:54:22 | 显示全部楼层
很强~
回复

使用道具 举报

蓝光币
38
发表于 2024-4-12 05:36:37 | 显示全部楼层
等的就是你
回复

使用道具 举报

蓝光币
0
发表于 2024-4-24 01:02:14 | 显示全部楼层
下载速度非常慢,还差5%没下完就没有源了
回复

使用道具 举报

蓝光币
1
发表于 2024-4-26 23:22:45 | 显示全部楼层
感谢楼主分享
回复

使用道具 举报

蓝光币
129
发表于 2024-5-4 14:43:16 | 显示全部楼层
感谢楼主分享
回复

使用道具 举报

懒得打字嘛,点击右侧快捷回复 【右侧内容,后台自定义】
您需要登录后才可以回帖 登录 | 立即加入

本版积分规则

Archiver| |网站地图

Copyright © 2024 Comsenz Inc. Powered by 蓝光电影网

本站内容由用户自主分享和转载自互联网,转载目的在于传递更多信息,并不代表本网赞同其观点和对其真实性负责。

如有侵权、违反国家法律政策行为,请联系我们,我们会第一时间及时清除和处理!

举报反馈邮箱:4k1080.com@gmail.com

快速回复 返回顶部 返回列表