找回密码

查看: 217|回复: 1

[喜剧] 驱魔道长 [泰吉修复版][国粤双语 内封简繁字幕].Exorcist.Master.1993.WEB-DL.1080P.H264.DD.2.0-TAG 2.38GB

[复制链接]
蓝光币
1917
发表于 2024-4-7 21:07:32 | 显示全部楼层 |阅读模式
驱魔道长 [泰吉修复版][国粤双语 内封简繁字幕].Exorcist.Master.1993.WEB-DL.1080P.H264.DD.2.0-TAG 2.38GB-1.jpg
◎译  名 驱魔道长 / Exorcist Master / 血衣招魂 / 魂盼归舟
◎片  名 驅魔道長
◎年  代 1993
◎产  地 中国香港 / 中国台湾
◎类  别 笑剧 / 可骇
◎语  言 粤语
◎上映日期 1993(中国台湾)
◎IMDb评分  6.0/10 from 132 users
◎IMDb链接  https://www.imdb.com/title/tt0106841
◎豆瓣评分 7.0/10 from 6667 users
◎豆瓣链接 https://movie.douban.com/subject/2127676/
◎片  长 91 分钟
◎导  演 午马 Wu Ma
◎编  剧 赵鲁江 Lu Chiang Chao / 郑文华 Man-Wah Cheng
◎主  演 林正英 Ching-Ying Lam
      午马 Wu Ma
      邹兆龙 Collin Chou
      陈佳君 Chia-chun Chen
      岳虹 Hung Yue
      原森 Sen Yuen
      叶荣祖 Wing-Cho Yip
◎简  介  
  一眉道长九叔(林正英 饰)擅长降妖除怪,麾下两个徒弟阿星(倪星 饰)和小月则鬼马顽皮,经常作出令徒弟头疼的工作。
  九叔师徒地点的酒泉镇教堂曾发生古怪悲剧,屋顶的十字架遭雷劈,将神父活活插死,教堂今后荒废封闭。二十年后,吴神父(午马 饰)计划重开教堂,九叔知教堂处在酒泉镇至阴之地,重开必伤人命,遂死力否决。而镇长之子David(杨子孺 饰)欲借教堂做犯警活动,死力主张重开。
  九叔拗不外众人,只好作罢。然自此,内里邪祟重返人世……

  1. General
  2. Unique ID : 211836828246579819817817370043517458737 (0x9F5E4A016F98692CE1BD8592D8EB5931)
  3. Complete name : Exorcist Master 1993 WEB-DL 1080P H264 DD 2.0-TAG.mkv
  4. Format : Matroska
  5. Format version : Version 4
  6. File size : 2.38 GiB
  7. Duration : 1 h 28 min
  8. Overall bit rate : 3 863 kb/s
  9. Encoded date : UTC 2020-03-03 13:35:50
  10. Writing application : mkvmerge v19.0.0 (‘Brave Captain‘) 64-bit
  11. Writing library : libebml v1.3.5 + libmatroska v1.4.8
  12. Video
  13. ID : 1
  14. Format : AVC
  15. Format/Info : Advanced Video Codec
  16. Format profile : High@L5
  17. Format settings : CABAC / 5 Ref Frames
  18. Format settings, CABAC : Yes
  19. Format settings, Reference fra : 5 frames
  20. Codec ID : V_MPEG4/ISO/AVC
  21. Duration : 1 h 28 min
  22. Bit rate : 3 413 kb/s
  23. Width : 1 912 pixels
  24. Height : 1 072 pixels
  25. Display aspect ratio : 16:9
  26. Frame rate mode : Constant
  27. Frame rate : 25.000 FPS
  28. Color space : YUV
  29. Chroma subsampling : 4:2:0
  30. Bit depth : 8 bits
  31. Scan type : Progressive
  32. Bits/(Pixel*Frame) : 0.067
  33. Stream size : 2.10 GiB (88%)
  34. Writing library : x264 core 152 r2854 e9a5903
  35. Default : Yes
  36. Forced : No
  37. Audio #1
  38. ID : 2
  39. Format : AC-3
  40. Format/Info : Audio Coding 3
  41. Commercial name : Dolby Digital
  42. Codec ID : A_AC3
  43. Duration : 1 h 28 min
  44. Bit rate mode : Constant
  45. Bit rate : 224 kb/s
  46. Channel(s) : 2 channels
  47. Channel layout : L R
  48. Sampling rate : 48.0 kHz
  49. Frame rate : 31.250 FPS (1536 SPF)
  50. Bit depth : 16 bits
  51. Compression mode : Lossy
  52. Stream size : 141 MiB (6%)
  53. Title : 国语
  54. Language : Chinese
  55. Service kind : Complete Main
  56. Default : Yes
  57. Forced : No
  58. Audio #2
  59. ID : 3
  60. Format : AC-3
  61. Format/Info : Audio Coding 3
  62. Commercial name : Dolby Digital
  63. Codec ID : A_AC3
  64. Duration : 1 h 28 min
  65. Bit rate mode : Constant
  66. Bit rate : 224 kb/s
  67. Channel(s) : 2 channels
  68. Channel layout : L R
  69. Sampling rate : 48.0 kHz
  70. Frame rate : 31.250 FPS (1536 SPF)
  71. Bit depth : 16 bits
  72. Compression mode : Lossy
  73. Stream size : 141 MiB (6%)
  74. Title : 粤语
  75. Language : Chinese
  76. Service kind : Complete Main
  77. Default : No
  78. Forced : No
  79. Text #1
  80. ID : 4
  81. Format : ASS
  82. Codec ID : S_TEXT/ASS
  83. Codec ID/Info : Advanced Sub Station Alpha
  84. Duration : 1 h 25 min
  85. Bit rate : 71 b/s
  86. Count of elements : 931
  87. Compression mode : Lossless
  88. Stream size : 44.7 KiB (0%)
  89. Title : 简体中文
  90. Language : Chinese
  91. Default : Yes
  92. Forced : No
  93. Text #2
  94. ID : 5
  95. Format : ASS
  96. Codec ID : S_TEXT/ASS
  97. Codec ID/Info : Advanced Sub Station Alpha
  98. Duration : 1 h 25 min
  99. Bit rate : 71 b/s
  100. Count of elements : 931
  101. Compression mode : Lossless
  102. Stream size : 44.7 KiB (0%)
  103. Title : 繁体中文
  104. Language : Chinese
  105. Default : No
  106. Forced : No
复制代码
驱魔道长 [泰吉修复版][国粤双语 内封简繁字幕].Exorcist.Master.1993.WEB-DL.1080P.H264.DD.2.0-TAG 2.38GB-2.png
驱魔道长 [泰吉修复版][国粤双语 内封简繁字幕].Exorcist.Master.1993.WEB-DL.1080P.H264.DD.2.0-TAG 2.38GB-3.png
驱魔道长 [泰吉修复版][国粤双语 内封简繁字幕].Exorcist.Master.1993.WEB-DL.1080P.H264.DD.2.0-TAG 2.38GB-4.png
驱魔道长 [泰吉修复版][国粤双语 内封简繁字幕].Exorcist.Master.1993.WEB-DL.1080P.H264.DD.2.0-TAG 2.38GB-5.png









回复

使用道具 举报

蓝光币
92
发表于 2024-4-8 10:47:29 | 显示全部楼层
谢谢 辛苦了 楼主
回复

使用道具 举报

懒得打字嘛,点击右侧快捷回复 【右侧内容,后台自定义】
您需要登录后才可以回帖 登录 | 立即加入

本版积分规则

Archiver| |网站地图

Copyright © 2024 Comsenz Inc. Powered by 蓝光电影网

本站内容由用户自主分享和转载自互联网,转载目的在于传递更多信息,并不代表本网赞同其观点和对其真实性负责。

如有侵权、违反国家法律政策行为,请联系我们,我们会第一时间及时清除和处理!

举报反馈邮箱:4k1080.com@gmail.com

快速回复 返回顶部 返回列表