找回密码

查看: 216|回复: 0

[科幻] 动物王国.The.Animal.Kingdom.2023.FRA.1080p.BluRay.REMUX.AVC.DTS-HD.MA.5.1-Asmo 29.80GB

[复制链接]
蓝光币
1917
发表于 2024-4-12 22:15:35 | 显示全部楼层 |阅读模式


◎译  名 动物王国 / 进化症候群(台) / The Animal Kingdom
◎片  名 Le règne animal
◎年  代 2023
◎产  地 法国 / 比利时
◎类  别 剧情 / 科幻 / 悬疑 / 可骇 / 冒险
◎语  言 法语
◎上映日期 2023-05-17(戛纳电影节) / 2023-10-04(法国)
◎IMDb评星  ★★★★★★✦☆☆☆
◎IMDb评分  6.7/10 from 5,790 users
◎IMDb链接  https://www.imdb.com/title/tt16606592/
◎豆瓣评星 ★★★✦☆
◎豆瓣评分 7.3/10 from 5,554 users
◎豆瓣链接 https://movie.douban.com/subject/35779956/
◎片  长 128分钟
◎导  演 托马斯·卡耶 / Thomas Cailley
◎演  员 罗曼·杜里斯 / Romain Duris | 饰 François Marindaze
      保罗·基尔舍 / Paul Kircher | 饰 Émile Marindaze
      阿黛尔·艾克萨勒霍布洛斯 / Adèle Exarchopoulos | 饰 Julia Izquierdo
      汤姆·梅西耶 / Tom Mercier | 饰 Fix
      比莉·布兰 / Billie Blain | 饰 Nina
      泽维尔·奥贝尔 / Xavier Aubert | 饰 Jacques
      萨迪亚·本塔伊布 / Saadia Bentaïeb | 饰 Naïma
      加百列·卡巴列罗 / Gabriel Caballero | 饰 Victor
      伊里亚娜·赫利法 / Iliana Khelifa | 饰 Maëlle
      保罗·穆古鲁扎 / Paul Muguruza | 饰 Jordan
      玛埃莉·本基姆 / Maëlle Benkimoun | 饰 Grenouille
      娜塔莉·理查德 / Nathalie Richard | 饰 Professeure Valérie Beaudoin
      汤姆·利沃尔 / Tom Rivoire | 饰 Lieutenant gendarmerie
      弗朗索瓦-泽维尔·拉斐尔 / Francois-Xavier Raffier | 饰 Gendarme Bonnel
      弗洛伦斯·德雷兹 / Florence Deretz | 饰 Lana
      露易丝·莱赫里 / Louise Lehry | 饰 Professeure principale
      吉恩·博罗纳特 / Jean Boronat | 饰 Professeur EPS
      尼古拉斯·阿维尼 / Nicolas Avinée | 饰 Conducteur voisin
      塞巴斯蒂安·博伊萨维特 / Sébastien Boissavit | 饰 Commandant gendarmerie
      安瓦·厄尔·卡迪 / Anwar El Kadi | 饰 Gendarme infirmerie
◎编  剧 托马斯·卡耶 / Thomas Cailley
      宝琳·穆尼耶 / Pauline Munier
◎制  片  人  Pierre Guyard
       Ève Machuel
       Philip Boëffard
      克里斯朵夫·罗西尼翁 / Christophe Rossignon
◎音  乐 安德里亚·拉斯洛·德·西蒙尼 / Andrea Laszlo De Simone
       Sebastien Pan
◎摄  影 大卫·凯利 / David Cailley
       Erwan Becquelin
◎剪  辑 莉莉安·科贝勒 / Lilian Corbeille
◎选  角  Ophélie Brueder
◎美  术 朱莉娅·勒麦尔 / Julia Lemaire
       Sylvain Despretz
◎服  装 艾丽亚涅·道拉特 / Ariane Daurat
◎化  妆  Frédéric Lainé
◎制片治理  Vincent Lefeuvre
       Laurent Weitmann
◎副  导  演  Violette Echazarreta
       Tristan Minault
       Mahaut Pellerin
       Jean-Baptiste Becq
◎现场殊效  Yann Pomarede
◎简  介 
  近未来,奥秘症状在人群间分散,恐惧在空气中曼延。缘由不明,只知传染者早期会发生骨骼变异,身材长出毛皮或鳞片,原有人类特质将慢慢退化。政府一筹莫展,只能强迫收管已兽化的传染者。方苏瓦深信挚爱的妻子还在那张突变的面孔底下,不管她被转到多远的收留所,他都带着青春期的儿子艾米搬家跟从。尝试融入新班级的艾米,却意外发现身材也出现了难以开口的变化⋯⋯
◎获奖情况 
  第76届戛纳电影节 (2023)
  一种关注单元 一种关注大奖(提名) 托马斯·卡耶
  第49届法国凯撒电影奖 (2024)
  最好影片(提名)
  最好导演(提名) 托马斯·卡耶
  最好男配角(提名) 罗曼·杜里斯
  最好新人男演员(提名) 保罗·基尔舍
  最好原创剧本(提名) 托马斯·卡耶,宝琳·穆尼耶
  最好摄影 大卫·凯利
  最好剪辑(提名) 莉莉安·科贝勒
  最好原创音乐 安德里亚·拉斯洛·德·西蒙尼
  最好音效
  最好打扮 艾丽亚涅·道拉特
  最好布景(提名) 朱莉娅·勒麦尔
  最好视觉结果
  第5届海南岛国际电影节 (2023)
  金椰奖 最好影片奖(提名) 托马斯·卡耶
  金椰奖 最好男演员奖 保罗·基尔舍
  1. The.Animal.Kingdom.2023.FRA.1080p.BluRay.REMUX.AVC.DTS-HD.MA.5.1-Asmo
  2. Stream #0:0(fre): Video: h264 (High), yuv420p(progressive), 1920x1080 [SAR 1:1 DAR 16:9], 24 fps, 24 tbr, 1k tbn, 48 tbc (default)
  3. Stream #0:1(fre): Audio: dts (DTS-HD MA), 48000 Hz, 5.1(side), s32p (24 bit) (default)
  4. Stream #0:2(cze): Subtitle: subrip
  5. Stream #0:3(dut): Subtitle: subrip
  6. Stream #0:4(eng): Subtitle: subrip
  7. Stream #0:5(fre): Subtitle: subrip
  8. Stream #0:6(ger): Subtitle: subrip
  9. Stream #0:7(ita): Subtitle: subrip
  10. Stream #0:8(spa): Subtitle: subrip
复制代码









回复

使用道具 举报

懒得打字嘛,点击右侧快捷回复 【右侧内容,后台自定义】
您需要登录后才可以回帖 登录 | 立即加入

本版积分规则

Archiver| |网站地图

Copyright © 2024 Comsenz Inc. Powered by 蓝光电影网

本站内容由用户自主分享和转载自互联网,转载目的在于传递更多信息,并不代表本网赞同其观点和对其真实性负责。

如有侵权、违反国家法律政策行为,请联系我们,我们会第一时间及时清除和处理!

举报反馈邮箱:4k1080.com@gmail.com

快速回复 返回顶部 返回列表