找回密码

查看: 160|回复: 0

[犯罪] 恐怖分子.The.Terrorizers.1986.CHN.1080p.BluRay.REMUX.AVC.DTS-HD.MA.2.0-Asmo 16.55GB

[复制链接]
蓝光币
1917
发表于 2024-4-13 12:02:19 | 显示全部楼层 |阅读模式


◎译  名 可骇份子 / 请伪装你会舍不得我 / The Terrorist / Terrorizers / Horror Horror Minute Child / Kyofu bunshi / The Terrorizers
◎片  名 可骇份子
◎年  代 1986
◎产  地 中国台湾
◎类  别 剧情 / 犯罪
◎语  言 汉语普通话 / 闽南语
◎上映日期 1986-12-19(中国台湾)
◎IMDb评星  ★★★★★★★✦☆☆
◎IMDb评分  7.7/10 from 5,477 users
◎IMDb链接  https://www.imdb.com/title/tt0091355/
◎豆瓣评星 ★★★★✦
◎豆瓣评分 9.0/10 from 74,241 users
◎豆瓣链接 https://movie.douban.com/subject/1305261/
◎片  长 109 分钟
◎导  演 杨德昌 / Edward Yang
◎演  员 缪骞人 / Cora Miao | 饰 周郁芬
      李立群 / Lichun Lee | 饰 李立中
      金士杰 / Shih-Chieh King | 饰 沈维彬
      顾宝明 / Pao-Ming Ku | 饰 老顾
      刘明 / Ming Liu
      王安 / Wang an | 饰 淑安
      马邵君 / Shaojun Ma | 饰 小强
      吕德明 / Te-ming Lu
      游安顺 / An-shun Yu | 饰 大顺
      黄嘉晴 / Chia-ching Huang
      萧智文 / Chi-Wen Hsiao
      洪善群 / Shan-Chun Hung
      施明扬 / Ming-Yang Shih
      朱凤岗 / Feng Kang Chu
      倪重华 / Chung-Hua Ni | 饰 小金
◎编  剧 小野 / Yeh Hsiao
      杨德昌 / Edward Yang
◎制  片  人 小野 / Yeh Hsiao
      徐国良 / Kuo-Liang Hsu
      邹文怀 / Raymond Chow
      林登飞 / Dengfei Lin
◎摄  影 刘振祥
      张展 / Tsang Chang
◎剪  辑 廖庆松 / Ching-Song Liao
◎音  效 杜笃之 / Du-Che Tu
◎其  它 陈国富 / Kuo-fu Chen
      蔡琴 / Chin Tsai
      邹文怀 / Raymond Chow
      赵琦彬 / Chi-pin Chao
      徐国良 / Kuo-Liang Hsu
◎简  介 
  老顾(顾宝明 饰)率领差人摧毁一个贼窝,唯一跳窗逃走的女孩淑安腿骨折断,被途经的男孩小强送去医院。
  淑安返家后,被母亲关在家中,无聊时四周打电话恶作剧,其中一个电话打给了一个叫周郁芳(缪骞人 饰)的女人,她冒充是周的丈夫在里面的女友,怀孕了要她出来谈判。周郁芬嫁给李立中(李立群 饰)已经有七年,丈夫是个循分守己的汉子,在一家医院工作。成婚后她辞了工作,在家写作。匿名电话深深刺激了周郁芬,她对生活落空信心,而旧情人沈维彬(金士杰 饰)的出现也给了她希望,因而她临时分开李立中,小说也获了奖。
  分家使得李立中非常忧心,后来他得知妻子离去只是由于一个电话,急于诠释但并不见效,最初铤而走险……
◎获奖情况 
  第23届台北金马影展 (1986)
  金马奖 最好剧情片
  金马奖 最好女配角(提名) 缪骞人
  金马奖 最好原著剧本(提名) 杨德昌,小野
◎幕后揭秘
  这是一个黑色而又发人深醒的影片,故事讲到最初,忽然出现了一个转折,到了终极我们才忽然发现,本来眼前发生的这一切都只是郁芬得奖小说里的情节而已,并不是实在的事务。可以看得出,自《工夫的故事》、《海滩的一天》以来,杨德昌对城市生活的思疑与思考没有变,而他对现实主义的黑色倾覆也照旧没有变,但他的电影却变得逐步锋利而灰心了起来,原本的那般疏离、冰冷的人际关系成长到《可骇份子》时,则成为更教人恐惧灰心的脆弱道德性为,大城市五花八门的物资情况,只会加倍剧这些小我的失望与无助。可以说,自此起头,杨德昌的电影才得以成为一个挺拔独行的时代标记,成为一种极端富有现代主义批评色彩的城市声音。在新电影活动起头以来,他的作品所为其带来的冲击力是惊人的,也是富有奠基意义的,假如没有他的存在,相信我们明天所论述的一切关于台湾电影的记忆都将沦为一具无骨之躯。
  这是一部对现代都会生活中潜伏的危机和可骇停止思考的电影。影片是以几条线索展开的。周郁芬的一部小说活了将,评审委员会赞美这部作品“很是的生活,又很盘曲,看了使人发冷”。这类评价几多暗示了影片的基调。周郁芬、李立中及淑安这样几小我物的故事交替展开,又相互联系,组成了影片复杂的结构。编导者变更艺术手段,揭露了本钱主义制度下都会社会和家庭生活的危机,以及风险人们保存的可骇行为,这在一定意义上表露了本钱主义社会的本质。
  1. The.Terrorizers.1986.CHN.1080p.BluRay.REMUX.AVC.DTS-HD.MA.2.0-Asmo
  2. Stream #0:0(chi): Video: h264 (High), yuv420p(tv, bt709, progressive), 1920x1080 [SAR 1:1 DAR 16:9], 23.98 fps, 23.98 tbr, 1k tbn, 47.95 tbc (default)
  3. Stream #0:1(chi): Audio: dts (DTS-HD MA), 48000 Hz, stereo, s32p (24 bit) (default)
  4. Stream #0:2(eng): Subtitle: hdmv_pgs_subtitle
  5. Stream #0:3(fre): Subtitle: hdmv_pgs_subtitle
  6. Stream #0:4(chi): Subtitle: hdmv_pgs_subtitle
  7. Stream #0:5(chi): Subtitle: hdmv_pgs_subtitle
  8. Stream #0:6(ita): Subtitle: hdmv_pgs_subtitle
  9. Stream #0:7(por): Subtitle: hdmv_pgs_subtitle
  10. Stream #0:8(rus): Subtitle: hdmv_pgs_subtitle
  11. Stream #0:9(spa): Subtitle: hdmv_pgs_subtitle
  12. Stream #0:10(ukr): Subtitle: hdmv_pgs_subtitle
复制代码










回复

使用道具 举报

懒得打字嘛,点击右侧快捷回复 【右侧内容,后台自定义】
您需要登录后才可以回帖 登录 | 立即加入

本版积分规则

Archiver| |网站地图

Copyright © 2024 Comsenz Inc. Powered by 蓝光电影网

本站内容由用户自主分享和转载自互联网,转载目的在于传递更多信息,并不代表本网赞同其观点和对其真实性负责。

如有侵权、违反国家法律政策行为,请联系我们,我们会第一时间及时清除和处理!

举报反馈邮箱:4k1080.com@gmail.com

快速回复 返回顶部 返回列表