找回密码

查看: 255|回复: 2

[动作] 红右手.Red.Right.Hand.2024.1080p.BluRay.REMUX.AVC.DTS-HD.MA.5.1-Asmo 28.54GB

[复制链接]
蓝光币
1917
发表于 2024-4-13 12:32:02 | 显示全部楼层 |阅读模式


◎译  名 红右手
◎片  名 Red Right Hand
◎年  代 2024
◎产  地 美国
◎类  别 行动 / 惊悚
◎语  言 英语
◎上映日期 2024-02-23(美国/美国收集)
◎IMDb评星  ★★★★★✦☆☆☆☆
◎IMDb评分  5.4/10 from 2,611 users
◎IMDb链接  https://www.imdb.com/title/tt19244260/
◎豆瓣评星 ★★✦☆☆
◎豆瓣评分 4.9/10 from 119 users
◎豆瓣链接 https://movie.douban.com/subject/35819362/
◎导  演 艾什姆·内尔姆斯 / Eshom Nelms
      伊恩·内尔姆斯 / Ian Nelms
◎演  员 奥兰多·布鲁姆 / Orlando Bloom | 饰 Cash
      安迪·麦克道威尔 / Andie MacDowell | 饰 Big Cat
      加瑞特·迪拉胡特 / Garret Dillahunt | 饰 Wilder
      布莱恩·格拉格提 / Brian Geraghty | 饰 Sheriff Hollister
      詹姆斯·拉夫尔提 / James Lafferty | 饰 Lazarus
      杰雷米·拉特福德 / Jeremy Ratchford | 饰 Dominic
      尼古拉斯·罗根 / Nicholas Logan | 饰 The Doe
      斯科特·黑兹 / Scott Haze | 饰 Finney
      亚历山德拉·帕克 / Alexandra Park | 饰 Tammy
      莫·麦克雷 / Mo McRae | 饰 Duke Parks
      丹尼尔·戴维·斯图尔特 / Daniel David Stewart | 饰 Zeke Barkley
      肯尼斯·米勒 / Kenneth Miller | 饰 The Buck
       Chapel Oaks | 饰 Savannah
      哈里森·斯通 / Harrison Stone | 饰 Carson
      伊桑·麦克道尔 / Ethan McDowell | 饰 Alpha
      莉兹·弗雷彻 / Liz Fletcher | 饰 Paramedic
       Zach Meiser | 饰 Cecil
      蒂姆·米库勒基 / Tim Mikulecky | 饰 Thug #6
       Sonny Burnette | 饰 Church Member
       Erik Schultz | 饰 Druggie Dan
◎编  剧  Jonathan Easley
◎简  介 
  卡什(奥兰多·布鲁姆 Orlando Bloom 饰)试图过上老实而恬静的生活,在阿巴拉契亚山区奥丁县照顾他的侄女萨凡纳。而小镇的统治者、凌虐狂女王“大猫”(安迪·麦克道威尔 Andie MacDowell 饰)逼迫他返来为她办事,让卡什意想到他会做任何事来庇护唯一的家人和小镇——甚至杀人。随着旅程变得加倍艰难,卡什堕入了一个模糊善与恶之间界限的噩梦。
  1. Red.Right.Hand.2024.1080p.BluRay.REMUX.AVC.DTS-HD.MA.5.1-Asmo
  2. Stream #0:0(eng): Video: h264 (High), yuv420p(progressive), 1920x1080 [SAR 1:1 DAR 16:9], 23.98 fps, 23.98 tbr, 1k tbn, 47.95 tbc (default)
  3. Stream #0:1(eng): Audio: dts (DTS-HD MA), 48000 Hz, 5.1(side), s32p (24 bit) (default)
  4. Stream #0:2(eng): Subtitle: hdmv_pgs_subtitle
  5. Stream #0:3(ger): Subtitle: hdmv_pgs_subtitle
  6. Stream #0:4(gre): Subtitle: hdmv_pgs_subtitle
  7. Stream #0:5(por): Subtitle: hdmv_pgs_subtitle
  8. Stream #0:6(rum): Subtitle: hdmv_pgs_subtitle
  9. Stream #0:7(spa): Subtitle: hdmv_pgs_subtitle
复制代码









回复

使用道具 举报

蓝光币
188
发表于 2024-4-17 19:48:08 | 显示全部楼层
种子文件有问题。请楼主检查一下。
回复

使用道具 举报

蓝光币
493
发表于 2024-5-8 02:02:41 | 显示全部楼层
glacierbh 发表于 2024-4-17 19:48
种子文件有问题。请楼主检查一下。

对啊,,有问题
回复

使用道具 举报

懒得打字嘛,点击右侧快捷回复 【右侧内容,后台自定义】
您需要登录后才可以回帖 登录 | 立即加入

本版积分规则

Archiver| |网站地图

Copyright © 2024 Comsenz Inc. Powered by 蓝光电影网

本站内容由用户自主分享和转载自互联网,转载目的在于传递更多信息,并不代表本网赞同其观点和对其真实性负责。

如有侵权、违反国家法律政策行为,请联系我们,我们会第一时间及时清除和处理!

举报反馈邮箱:4k1080.com@gmail.com

快速回复 返回顶部 返回列表