找回密码

查看: 167|回复: 0

[其他] 尼尔·布伦南:无与伦比.Neal.Brennan.Crazy.Good.2024.1080p.NF.WEB-DL.DDP5.1.H.264-FLUX 2.06GB

[复制链接]
蓝光币
1925
发表于 2024-4-13 12:37:14 | 显示全部楼层 |阅读模式


◎译  名 尼尔·布伦南:无与伦比
◎片  名 Neal Brennan: Crazy Good
◎年  代 2024
◎产  地 美国
◎语  言 英语
◎上映日期 2024-04-09(美国)
◎IMDb评星  ★★★★★★★✦☆☆
◎IMDb评分  7.4/10 from 188 users
◎IMDb链接  https://www.imdb.com/title/tt31723382/
◎豆瓣链接 https://movie.douban.com/subject/36819976/
◎导  演 尼尔·布伦南 / Neal Brennan
◎演  员 尼尔·布伦南 / Neal Brennan
◎简  介 
  在这部单口笑剧特辑中,笑剧演员尼尔·布伦南讥讽了加密货币、交际媒体炫耀风、性歌颂以及巨大和心理健康之间的联系。
  1. Neal.Brennan.Crazy.Good.2024.1080p.NF.WEB-DL.DDP5.1.H.264-FLUX.mkv
  2. General
  3. Unique ID                                : 70441666248693499935269361005440654124 (0x34FE9249A2B23970BC59398BAABDDB2C)
  4. Complete name                            : D:\Neal.Brennan.Crazy.Good.2024.1080p.NF.WEB-DL.DDP5.1.H.264-FLUX.mkv
  5. Format                                   : Matroska
  6. Format version                           : Version 4
  7. File size                                : 2.06 GiB
  8. Duration                                 : 53 min 1 s
  9. Overall bit rate mode                    : Variable
  10. Overall bit rate                         : 5 560 kb/s
  11. Writing application                      : mkvmerge v83.0 ('Circle Of Friends') 64-bit
  12. Writing library                          : libebml v1.4.5 + libmatroska v1.7.1
  13. Video
  14. ID                                       : 1
  15. Format                                   : AVC
  16. Format/Info                              : Advanced Video Codec
  17. Format profile                           : Main@L4
  18. Format settings                          : CABAC / 3 Ref Frames
  19. Format settings, CABAC                   : Yes
  20. Format settings, Reference frames        : 3 frames
  21. Codec ID                                 : V_MPEG4/ISO/AVC
  22. Duration                                 : 53 min 1 s
  23. Bit rate mode                            : Variable
  24. Bit rate                                 : 5 000 kb/s
  25. Maximum bit rate                         : 7 500 kb/s
  26. Width                                    : 1 920 pixels
  27. Height                                   : 1 080 pixels
  28. Display aspect ratio                     : 16:9
  29. Frame rate mode                          : Constant
  30. Frame rate                               : 23.976 (24000/1001) FPS
  31. Color space                              : YUV
  32. Chroma subsampling                       : 4:2:0
  33. Bit depth                                : 8 bits
  34. Scan type                                : Progressive
  35. Bits/(Pixel*Frame)                       : 0.101
  36. Stream size                              : 1.82 GiB (88%)
  37. Writing library                          : x264 core 148 r2727 7d026e8
  38. Encoding settings                        : cabac=1 / ref=3 / deblock=1:0:0 / analyse=0x1:0x111 / me=umh / subme=10 / psy=1 / psy_rd=1.00:0.00 / mixed_ref=1 / me_range=24 / chroma_me=1 / trellis=2 / 8x8dct=0 / cqm=0 / deadzone=21,11 / fast_pskip=1 / chroma_qp_offset=-2 / threads=6 / lookahead_threads=1 / sliced_threads=0 / nr=0 / decimate=1 / interlaced=0 / bluray_compat=0 / stitchable=1 / constrained_intra=0 / bframes=2 / b_pyramid=0 / b_adapt=2 / b_bias=0 / direct=3 / weightb=1 / open_gop=0 / weightp=2 / keyint=240 / keyint_min=121 / scenecut=0 / intra_refresh=0 / rc_lookahead=48 / rc=2pass / mbtree=1 / bitrate=5000 / ratetol=1.0 / qcomp=0.50 / qpmin=6 / qpmax=51 / qpstep=4 / cplxblur=20.0 / qblur=0.5 / vbv_maxrate=7500 / vbv_bufsize=10000 / nal_hrd=vbr / filler=0 / ip_ratio=1.40 / aq=1:1.00
  39. Language                                 : English
  40. Default                                  : Yes
  41. Forced                                   : No
  42. Audio
  43. ID                                       : 2
  44. Format                                   : E-AC-3
  45. Format/Info                              : Enhanced AC-3
  46. Commercial name                          : Dolby Digital Plus
  47. Codec ID                                 : A_EAC3
  48. Duration                                 : 53 min 1 s
  49. Bit rate mode                            : Constant
  50. Bit rate                                 : 640 kb/s
  51. Channel(s)                               : 6 channels
  52. Channel layout                           : L R C LFE Ls Rs
  53. Sampling rate                            : 48.0 kHz
  54. Frame rate                               : 31.250 FPS (1536 SPF)
  55. Compression mode                         : Lossy
  56. Stream size                              : 243 MiB (12%)
  57. Language                                 : English
  58. Service kind                             : Complete Main
  59. Default                                  : Yes
  60. Forced                                   : No
  61. Text #1
  62. ID                                       : 3
  63. Format                                   : UTF-8
  64. Codec ID                                 : S_TEXT/UTF8
  65. Codec ID/Info                            : UTF-8 Plain Text
  66. Duration                                 : 10 s 219 ms
  67. Bit rate                                 : 163 b/s
  68. Count of elements                        : 3
  69. Stream size                              : 209 Bytes (0%)
  70. Title                                    : Forced
  71. Language                                 : English
  72. Default                                  : Yes
  73. Forced                                   : Yes
  74. Text #2
  75. ID                                       : 4
  76. Format                                   : UTF-8
  77. Codec ID                                 : S_TEXT/UTF8
  78. Codec ID/Info                            : UTF-8 Plain Text
  79. Duration                                 : 51 min 43 s
  80. Bit rate                                 : 105 b/s
  81. Count of elements                        : 872
  82. Stream size                              : 39.9 KiB (0%)
  83. Language                                 : English
  84. Default                                  : No
  85. Forced                                   : No
  86. Text #3
  87. ID                                       : 5
  88. Format                                   : UTF-8
  89. Codec ID                                 : S_TEXT/UTF8
  90. Codec ID/Info                            : UTF-8 Plain Text
  91. Duration                                 : 51 min 49 s
  92. Bit rate                                 : 115 b/s
  93. Count of elements                        : 1060
  94. Stream size                              : 44.0 KiB (0%)
  95. Title                                    : SDH
  96. Language                                 : English
  97. Default                                  : No
  98. Forced                                   : No
  99. Text #4
  100. ID                                       : 6
  101. Format                                   : UTF-8
  102. Codec ID                                 : S_TEXT/UTF8
  103. Codec ID/Info                            : UTF-8 Plain Text
  104. Duration                                 : 51 min 42 s
  105. Bit rate                                 : 160 b/s
  106. Count of elements                        : 835
  107. Stream size                              : 60.7 KiB (0%)
  108. Language                                 : Arabic
  109. Default                                  : No
  110. Forced                                   : No
  111. Text #5
  112. ID                                       : 7
  113. Format                                   : UTF-8
  114. Codec ID                                 : S_TEXT/UTF8
  115. Codec ID/Info                            : UTF-8 Plain Text
  116. Duration                                 : 52 min 47 s
  117. Bit rate                                 : 88 b/s
  118. Count of elements                        : 826
  119. Stream size                              : 34.2 KiB (0%)
  120. Language                                 : Czech
  121. Default                                  : No
  122. Forced                                   : No
  123. Text #6
  124. ID                                       : 8
  125. Format                                   : UTF-8
  126. Codec ID                                 : S_TEXT/UTF8
  127. Codec ID/Info                            : UTF-8 Plain Text
  128. Duration                                 : 52 min 47 s
  129. Bit rate                                 : 87 b/s
  130. Count of elements                        : 747
  131. Stream size                              : 33.8 KiB (0%)
  132. Language                                 : Danish
  133. Default                                  : No
  134. Forced                                   : No
  135. Text #7
  136. ID                                       : 9
  137. Format                                   : UTF-8
  138. Codec ID                                 : S_TEXT/UTF8
  139. Codec ID/Info                            : UTF-8 Plain Text
  140. Duration                                 : 52 min 47 s
  141. Bit rate                                 : 97 b/s
  142. Count of elements                        : 839
  143. Stream size                              : 37.7 KiB (0%)
  144. Language                                 : German
  145. Default                                  : No
  146. Forced                                   : No
  147. Text #8
  148. ID                                       : 10
  149. Format                                   : UTF-8
  150. Codec ID                                 : S_TEXT/UTF8
  151. Codec ID/Info                            : UTF-8 Plain Text
  152. Duration                                 : 52 min 47 s
  153. Bit rate                                 : 163 b/s
  154. Count of elements                        : 817
  155. Stream size                              : 63.2 KiB (0%)
  156. Language                                 : Greek
  157. Default                                  : No
  158. Forced                                   : No
  159. Text #9
  160. ID                                       : 11
  161. Format                                   : UTF-8
  162. Codec ID                                 : S_TEXT/UTF8
  163. Codec ID/Info                            : UTF-8 Plain Text
  164. Duration                                 : 51 min 45 s
  165. Bit rate                                 : 92 b/s
  166. Count of elements                        : 797
  167. Stream size                              : 35.2 KiB (0%)
  168. Title                                    : Latin American
  169. Language                                 : Spanish
  170. Default                                  : No
  171. Forced                                   : No
  172. Text #10
  173. ID                                       : 12
  174. Format                                   : UTF-8
  175. Codec ID                                 : S_TEXT/UTF8
  176. Codec ID/Info                            : UTF-8 Plain Text
  177. Duration                                 : 52 min 47 s
  178. Bit rate                                 : 89 b/s
  179. Count of elements                        : 842
  180. Stream size                              : 34.6 KiB (0%)
  181. Language                                 : Spanish
  182. Default                                  : No
  183. Forced                                   : No
  184. Text #11
  185. ID                                       : 13
  186. Format                                   : UTF-8
  187. Codec ID                                 : S_TEXT/UTF8
  188. Codec ID/Info                            : UTF-8 Plain Text
  189. Duration                                 : 52 min 44 s
  190. Bit rate                                 : 81 b/s
  191. Count of elements                        : 638
  192. Stream size                              : 31.6 KiB (0%)
  193. Language                                 : Finnish
  194. Default                                  : No
  195. Forced                                   : No
  196. Text #12
  197. ID                                       : 14
  198. Format                                   : UTF-8
  199. Codec ID                                 : S_TEXT/UTF8
  200. Codec ID/Info                            : UTF-8 Plain Text
  201. Duration                                 : 52 min 47 s
  202. Bit rate                                 : 93 b/s
  203. Count of elements                        : 832
  204. Stream size                              : 36.2 KiB (0%)
  205. Language                                 : fil
  206. Default                                  : No
  207. Forced                                   : No
  208. Text #13
  209. ID                                       : 15
  210. Format                                   : UTF-8
  211. Codec ID                                 : S_TEXT/UTF8
  212. Codec ID/Info                            : UTF-8 Plain Text
  213. Duration                                 : 52 min 47 s
  214. Bit rate                                 : 91 b/s
  215. Count of elements                        : 844
  216. Stream size                              : 35.3 KiB (0%)
  217. Language                                 : French
  218. Default                                  : No
  219. Forced                                   : No
  220. Text #14
  221. ID                                       : 16
  222. Format                                   : UTF-8
  223. Codec ID                                 : S_TEXT/UTF8
  224. Codec ID/Info                            : UTF-8 Plain Text
  225. Duration                                 : 52 min 47 s
  226. Bit rate                                 : 160 b/s
  227. Count of elements                        : 844
  228. Stream size                              : 61.9 KiB (0%)
  229. Language                                 : Hebrew
  230. Default                                  : No
  231. Forced                                   : No
  232. Text #15
  233. ID                                       : 17
  234. Format                                   : UTF-8
  235. Codec ID                                 : S_TEXT/UTF8
  236. Codec ID/Info                            : UTF-8 Plain Text
  237. Duration                                 : 52 min 47 s
  238. Bit rate                                 : 84 b/s
  239. Count of elements                        : 798
  240. Stream size                              : 32.7 KiB (0%)
  241. Language                                 : Croatian
  242. Default                                  : No
  243. Forced                                   : No
  244. Text #16
  245. ID                                       : 18
  246. Format                                   : UTF-8
  247. Codec ID                                 : S_TEXT/UTF8
  248. Codec ID/Info                            : UTF-8 Plain Text
  249. Duration                                 : 52 min 47 s
  250. Bit rate                                 : 89 b/s
  251. Count of elements                        : 824
  252. Stream size                              : 34.7 KiB (0%)
  253. Language                                 : Hungarian
  254. Default                                  : No
  255. Forced                                   : No
  256. Text #17
  257. ID                                       : 19
  258. Format                                   : UTF-8
  259. Codec ID                                 : S_TEXT/UTF8
  260. Codec ID/Info                            : UTF-8 Plain Text
  261. Duration                                 : 52 min 47 s
  262. Bit rate                                 : 91 b/s
  263. Count of elements                        : 842
  264. Stream size                              : 35.2 KiB (0%)
  265. Language                                 : Indonesian
  266. Default                                  : No
  267. Forced                                   : No
  268. Text #18
  269. ID                                       : 20
  270. Format                                   : UTF-8
  271. Codec ID                                 : S_TEXT/UTF8
  272. Codec ID/Info                            : UTF-8 Plain Text
  273. Duration                                 : 52 min 47 s
  274. Bit rate                                 : 89 b/s
  275. Count of elements                        : 796
  276. Stream size                              : 34.5 KiB (0%)
  277. Language                                 : Italian
  278. Default                                  : No
  279. Forced                                   : No
  280. Text #19
  281. ID                                       : 21
  282. Format                                   : UTF-8
  283. Codec ID                                 : S_TEXT/UTF8
  284. Codec ID/Info                            : UTF-8 Plain Text
  285. Duration                                 : 52 min 47 s
  286. Bit rate                                 : 83 b/s
  287. Count of elements                        : 804
  288. Stream size                              : 32.2 KiB (0%)
  289. Language                                 : Japanese
  290. Default                                  : No
  291. Forced                                   : No
  292. Text #20
  293. ID                                       : 22
  294. Format                                   : UTF-8
  295. Codec ID                                 : S_TEXT/UTF8
  296. Codec ID/Info                            : UTF-8 Plain Text
  297. Duration                                 : 52 min 47 s
  298. Bit rate                                 : 106 b/s
  299. Count of elements                        : 858
  300. Stream size                              : 41.3 KiB (0%)
  301. Language                                 : Korean
  302. Default                                  : No
  303. Forced                                   : No
  304. Text #21
  305. ID                                       : 23
  306. Format                                   : UTF-8
  307. Codec ID                                 : S_TEXT/UTF8
  308. Codec ID/Info                            : UTF-8 Plain Text
  309. Duration                                 : 52 min 46 s
  310. Bit rate                                 : 87 b/s
  311. Count of elements                        : 821
  312. Stream size                              : 33.9 KiB (0%)
  313. Language                                 : Malay
  314. Default                                  : No
  315. Forced                                   : No
  316. Text #22
  317. ID                                       : 24
  318. Format                                   : UTF-8
  319. Codec ID                                 : S_TEXT/UTF8
  320. Codec ID/Info                            : UTF-8 Plain Text
  321. Duration                                 : 52 min 47 s
  322. Bit rate                                 : 84 b/s
  323. Count of elements                        : 784
  324. Stream size                              : 32.8 KiB (0%)
  325. Language                                 : Norwegian Bokmal
  326. Default                                  : No
  327. Forced                                   : No
  328. Text #23
  329. ID                                       : 25
  330. Format                                   : UTF-8
  331. Codec ID                                 : S_TEXT/UTF8
  332. Codec ID/Info                            : UTF-8 Plain Text
  333. Duration                                 : 52 min 47 s
  334. Bit rate                                 : 94 b/s
  335. Count of elements                        : 792
  336. Stream size                              : 36.6 KiB (0%)
  337. Language                                 : Dutch
  338. Default                                  : No
  339. Forced                                   : No
  340. Text #24
  341. ID                                       : 26
  342. Format                                   : UTF-8
  343. Codec ID                                 : S_TEXT/UTF8
  344. Codec ID/Info                            : UTF-8 Plain Text
  345. Duration                                 : 52 min 47 s
  346. Bit rate                                 : 88 b/s
  347. Count of elements                        : 777
  348. Stream size                              : 34.2 KiB (0%)
  349. Language                                 : Polish
  350. Default                                  : No
  351. Forced                                   : No
  352. Text #25
  353. ID                                       : 27
  354. Format                                   : UTF-8
  355. Codec ID                                 : S_TEXT/UTF8
  356. Codec ID/Info                            : UTF-8 Plain Text
  357. Duration                                 : 51 min 42 s
  358. Bit rate                                 : 92 b/s
  359. Count of elements                        : 837
  360. Stream size                              : 35.0 KiB (0%)
  361. Title                                    : Brazilian
  362. Language                                 : Portuguese
  363. Default                                  : No
  364. Forced                                   : No
  365. Text #26
  366. ID                                       : 28
  367. Format                                   : UTF-8
  368. Codec ID                                 : S_TEXT/UTF8
  369. Codec ID/Info                            : UTF-8 Plain Text
  370. Duration                                 : 52 min 47 s
  371. Bit rate                                 : 88 b/s
  372. Count of elements                        : 799
  373. Stream size                              : 34.1 KiB (0%)
  374. Language                                 : Portuguese
  375. Default                                  : No
  376. Forced                                   : No
  377. Text #27
  378. ID                                       : 29
  379. Format                                   : UTF-8
  380. Codec ID                                 : S_TEXT/UTF8
  381. Codec ID/Info                            : UTF-8 Plain Text
  382. Duration                                 : 52 min 47 s
  383. Bit rate                                 : 88 b/s
  384. Count of elements                        : 718
  385. Stream size                              : 34.4 KiB (0%)
  386. Language                                 : Romanian
  387. Default                                  : No
  388. Forced                                   : No
  389. Text #28
  390. ID                                       : 30
  391. Format                                   : UTF-8
  392. Codec ID                                 : S_TEXT/UTF8
  393. Codec ID/Info                            : UTF-8 Plain Text
  394. Duration                                 : 52 min 47 s
  395. Bit rate                                 : 86 b/s
  396. Count of elements                        : 741
  397. Stream size                              : 33.6 KiB (0%)
  398. Language                                 : Swedish
  399. Default                                  : No
  400. Forced                                   : No
  401. Text #29
  402. ID                                       : 31
  403. Format                                   : UTF-8
  404. Codec ID                                 : S_TEXT/UTF8
  405. Codec ID/Info                            : UTF-8 Plain Text
  406. Duration                                 : 52 min 47 s
  407. Bit rate                                 : 230 b/s
  408. Count of elements                        : 846
  409. Stream size                              : 89.2 KiB (0%)
  410. Language                                 : Thai
  411. Default                                  : No
  412. Forced                                   : No
  413. Text #30
  414. ID                                       : 32
  415. Format                                   : UTF-8
  416. Codec ID                                 : S_TEXT/UTF8
  417. Codec ID/Info                            : UTF-8 Plain Text
  418. Duration                                 : 52 min 47 s
  419. Bit rate                                 : 94 b/s
  420. Count of elements                        : 752
  421. Stream size                              : 36.4 KiB (0%)
  422. Language                                 : Turkish
  423. Default                                  : No
  424. Forced                                   : No
  425. Text #31
  426. ID                                       : 33
  427. Format                                   : UTF-8
  428. Codec ID                                 : S_TEXT/UTF8
  429. Codec ID/Info                            : UTF-8 Plain Text
  430. Duration                                 : 52 min 47 s
  431. Bit rate                                 : 151 b/s
  432. Count of elements                        : 794
  433. Stream size                              : 58.6 KiB (0%)
  434. Language                                 : Ukrainian
  435. Default                                  : No
  436. Forced                                   : No
  437. Text #32
  438. ID                                       : 34
  439. Format                                   : UTF-8
  440. Codec ID                                 : S_TEXT/UTF8
  441. Codec ID/Info                            : UTF-8 Plain Text
  442. Duration                                 : 52 min 47 s
  443. Bit rate                                 : 116 b/s
  444. Count of elements                        : 788
  445. Stream size                              : 44.9 KiB (0%)
  446. Language                                 : Vietnamese
  447. Default                                  : No
  448. Forced                                   : No
  449. Text #33
  450. ID                                       : 35
  451. Format                                   : UTF-8
  452. Codec ID                                 : S_TEXT/UTF8
  453. Codec ID/Info                            : UTF-8 Plain Text
  454. Duration                                 : 52 min 47 s
  455. Bit rate                                 : 92 b/s
  456. Count of elements                        : 844
  457. Stream size                              : 35.6 KiB (0%)
  458. Title                                    : Simplified
  459. Language                                 : Chinese
  460. Default                                  : No
  461. Forced                                   : No
  462. Text #34
  463. ID                                       : 36
  464. Format                                   : UTF-8
  465. Codec ID                                 : S_TEXT/UTF8
  466. Codec ID/Info                            : UTF-8 Plain Text
  467. Duration                                 : 52 min 43 s
  468. Bit rate                                 : 84 b/s
  469. Count of elements                        : 863
  470. Stream size                              : 32.5 KiB (0%)
  471. Title                                    : Traditional
  472. Language                                 : Chinese
  473. Default                                  : No
  474. Forced                                   : No
复制代码









回复

使用道具 举报

懒得打字嘛,点击右侧快捷回复 【右侧内容,后台自定义】
您需要登录后才可以回帖 登录 | 立即加入

本版积分规则

Archiver| |网站地图

Copyright © 2024 Comsenz Inc. Powered by 蓝光电影网

本站内容由用户自主分享和转载自互联网,转载目的在于传递更多信息,并不代表本网赞同其观点和对其真实性负责。

如有侵权、违反国家法律政策行为,请联系我们,我们会第一时间及时清除和处理!

举报反馈邮箱:4k1080.com@gmail.com

快速回复 返回顶部 返回列表