找回密码

查看: 278|回复: 1

[动作] 三个火枪手:米莱迪.The.Three.Musketeers.Milady.2023.FRA.1080p.BluRay.REMUX.AVC.TrueHD.7.1.Atmos-Asmo 32.23GB

[复制链接]
蓝光币
1917
发表于 2024-4-16 16:22:03 | 显示全部楼层 |阅读模式


◎译  名 三个火枪手:米莱迪 / 三个火枪手(下) / The Three Musketeers: Milady / The Three Musketeers - Part II: Milady
◎片  名 Les Trois Mousquetaires: Milady
◎年  代 2023
◎产  地 法国 / 德国 / 西班牙
◎类  别 行动 / 历史 / 冒险
◎语  言 法语
◎上映日期 2023-12-13(法国)
◎IMDb评星  ★★★★★★✦☆☆☆
◎IMDb评分  6.5/10 from 3,065 users
◎IMDb链接  https://www.imdb.com/title/tt12672620/
◎豆瓣评星 ★★★☆☆
◎豆瓣评分 5.8/10 from 144 users
◎豆瓣链接 https://movie.douban.com/subject/35360551/
◎导  演 马丁·布尔布隆 / Martin Bourboulon
◎演  员 伊娃·格林 / Eva Green | 饰 Milady
      文森特·卡塞尔 / Vincent Cassel | 饰 Athos
      薇姬·克里普斯 / Vicky Krieps | 饰 Anne d'Autriche
      路易·加瑞尔 / Louis Garrel | 饰 King Louis XIII
      琳娜·库德里 / Lyna Khoudri | 饰 Constance Bonacieux
      雅各布·福琼·劳埃德 / Jacob Fortune-Lloyd | 饰 Duc de Buckingham
      弗朗索瓦·西维尔 / François Civil | 饰 D'Artagnan
      罗曼·杜里斯 / Romain Duris | 饰 Aramis
      皮奥·马麦 / Pio Marmaï | 饰 Porthos
      拉尔夫·阿穆苏 / Ralph Amoussou | 饰 Hannibal
      卡米莉·拉瑟福德 / Camille Rutherford | 饰 Mathilde
      马克·巴贝 / Marc Barbé | 饰 Le capitaine de Tréville
      帕特里克·米勒 / Patrick Mille | 饰 Le comte de Chalais
      詹姆斯·弗林 / James Flynn | 饰 Bourreau
      艾瑞克·拉夫 / Éric Ruf | 饰 Le cardinal de Richelieu
      亚力克西斯·马沙利克 / Alexis·Michalik | 饰 Villeneuve de Radis
      伊凡·弗拉内克 / Ivan Franek | 饰 Ardanza
      朱利安·弗里森 / Julien Frison | 饰 Gaston de France
      提布尔·凡松 / Thibault Vinçon
◎编  剧 马修·德拉波特 / Matthieu Delaporte
      大仲马 / Alexandre Dumas
      亚历山大·德·拉·巴特里耶 / Alexandre de La Patellière
      马丁·布尔布隆 / Martin Bourboulon
◎服  装 蒂埃里·德莱特 / Thierry Delettre
◎简  介 
  从卢浮宫到白金汉宫,到巴黎的阴沟到拉罗谢尔的围城……在一个被宗教战争割裂并遭到英国入侵威胁的王国里,少数男男女女将一触即发,将他们的命运与法国的命运绑在一路 。
◎获奖情况 
  第49届法国凯撒电影奖 (2024)
  最好摄影(提名) 尼古拉·博杜克
  最好原创音乐(提名) 吉约姆·胡塞尔
  最好音效(提名)
  最好打扮(提名) 蒂埃里·德莱特
  最好布景
  最好视觉结果(提名)
  1. The.Three.Musketeers.Milady.2023.FRA.1080p.BluRay.REMUX.AVC.TrueHD.7.1.Atmos-Asmo
  2. Stream #0:0(fre): Video: h264 (High), yuv420p(tv, bt709, progressive), 1920x1080 [SAR 1:1 DAR 16:9], 24 fps, 24 tbr, 1k tbn, 48 tbc (default)
  3. Stream #0:1(fre): Audio: truehd, 48000 Hz, 7.1, s32 (24 bit) (default)
  4. Stream #0:2(fre): Audio: ac3, 48000 Hz, 5.1(side), fltp, 640 kb/s
  5. Stream #0:3(eng): Subtitle: hdmv_pgs_subtitle
复制代码









回复

使用道具 举报

蓝光币
3
发表于 2024-5-7 14:15:54 | 显示全部楼层

楼主太厉害了!楼主,电影应该很好看我觉得蓝光电影网真是个好地方!
回复

使用道具 举报

懒得打字嘛,点击右侧快捷回复 【右侧内容,后台自定义】
您需要登录后才可以回帖 登录 | 立即加入

本版积分规则

Archiver| |网站地图

Copyright © 2024 Comsenz Inc. Powered by 蓝光电影网

本站内容由用户自主分享和转载自互联网,转载目的在于传递更多信息,并不代表本网赞同其观点和对其真实性负责。

如有侵权、违反国家法律政策行为,请联系我们,我们会第一时间及时清除和处理!

举报反馈邮箱:4k1080.com@gmail.com

快速回复 返回顶部 返回列表