找回密码

查看: 222|回复: 1

[剧情] 狂/Ripples Across Stagnant Water [国语].Ripples.Across.Stagnant.Water.1992.WEB-DL.1080p.H264.AAC-TAG 2.06GB

[复制链接]
蓝光币
1917
发表于 2024-4-16 18:48:21 | 显示全部楼层 |阅读模式
狂/Ripples Across Stagnant Water [国语].Ripples.Across.Stagnant.Water.1992.WEB-DL.1080p.H264.AAC-TAG 2.06GB-1.jpg

◎译  名 Ripples Across Stagnant Water
◎片  名 狂
◎年  代 1992
◎产  地 中国大陆
◎类  别 剧情 / 恋爱
◎语  言 汉语普通话
◎上映日期 1992-05-28(中国香港) / 2004-07-14(中国大陆)
◎IMDb评分  6.9/10 from 15 users
◎IMDb链接  https://www.imdb.com/title/tt0104646/
◎豆瓣评分 6.7/10 from 798 users
◎豆瓣链接 https://movie.douban.com/subject/1401185/
◎片  长 93分钟
◎导  演 凌子风 Zifeng Ling
◎编  剧 韩兰芳 Lanfang Han / 李劼人 Jieren Li
◎主  演 许晴 Qing Xu
      尤勇智 Yongzhi You
      赵君 Jun Zhao
      程希 Xi Cheng
      刘亚津 Yajin Liu
      贾盛云 Shengyun Jia

◎标  签 许晴 | 凌子风 | 中国 | 尤勇 | 小说改编 | 剧情 | 文艺 | 1992

◎简  介

  故事发生在十九世纪末的四川,诞生在农村的郑么姑(许晴 饰)嫁给了杂货铺的老板蔡兴顺,成为了杂货铺老板娘。蔡兴顺性情老实而又木讷,很是不解风情,而郑么姑具有美艳的表面,一娶进门便已经引来了风言风语。荣幸的是,蔡兴顺有一个年高德劭的表哥罗德生(尤勇 饰),每当有人想要欺侮郑么姑时,总是罗德胜出头抵抗回去,一来二去之间,郑么姑和罗德胜之间发生了不应当有的豪情。
  罗德胜离乡数年,带回了想要从良的妓女刘三金(程希 饰),操纵刘三金的美色榨干了粮户顾天成(赵军 饰)的腰包,也正是刘三金的出现让郑么姑和罗德胜决议不再压制他们的豪情。

  1. General
  2. Unique ID : 114906394388685901044887779052906189901 (0x56722AA4B0B4FC51820DEBD38AD1944D)
  3. Complete name : Ripples.Across.Stagnant.Water.1992.WEB-DL.1080p.H264.AAC-TAG.mkv
  4. Format : Matroska
  5. Format version : Version 4
  6. File size : 2.06 GiB
  7. Duration : 1 h 30 min
  8. Overall bit rate : 3 257 kb/s
  9. Encoded date : UTC 2021-04-16 03:22:34
  10. Writing application : mkvmerge v55.0.0 ('Waiting For Space') 64-bit
  11. Writing library : libebml v1.4.2 + libmatroska v1.6.4

  12. Video
  13. ID : 1
  14. Format : AVC
  15. Format/Info : Advanced Video Codec
  16. Format profile : High@L5
  17. Format settings : CABAC / 5 Ref Frames
  18. Format settings, CABAC : Yes
  19. Format settings, Reference frames : 5 frames
  20. Codec ID : V_MPEG4/ISO/AVC
  21. Duration : 1 h 30 min
  22. Bit rate : 3 000 kb/s
  23. Width : 1 920 pixels
  24. Height : 1 080 pixels
  25. Display aspect ratio : 16:9
  26. Frame rate mode : Constant
  27. Frame rate : 25.000 FPS
  28. Color space : YUV
  29. Chroma subsampling : 4:2:0
  30. Bit depth : 8 bits
  31. Scan type : Progressive
  32. Bits/(Pixel*Frame) : 0.058
  33. Stream size : 1.90 GiB (92%)
  34. Writing library : x264 core 144 r2525 40bb568
  35. Encoding settings : cabac=1 / ref=5 / deblock=1:0:0 / analyse=0x3:0x113 / me=umh / subme=8 / psy=1 / psy_rd=1.00:0.00 / mixed_ref=1 / me_range=16 / chroma_me=1 / trellis=1 / 8x8dct=1 / cqm=0 / deadzone=21,11 / fast_pskip=1 / chroma_qp_offset=-2 / threads=24 / lookahead_threads=4 / sliced_threads=0 / nr=0 / decimate=1 / interlaced=0 / bluray_compat=0 / constrained_intra=0 / bframes=3 / b_pyramid=2 / b_adapt=2 / b_bias=0 / direct=3 / weightb=1 / open_gop=0 / weightp=2 / keyint=250 / keyint_min=25 / scenecut=40 / intra_refresh=0 / rc_lookahead=50 / rc=abr / mbtree=1 / bitrate=3000 / ratetol=1.0 / qcomp=0.60 / qpmin=0 / qpmax=69 / qpstep=4 / ip_ratio=1.40 / aq=1:1.00
  36. Default : Yes
  37. Forced : No

  38. Audio
  39. ID : 2
  40. Format : AAC LC
  41. Format/Info : Advanced Audio Codec Low Complexity
  42. Codec ID : A_AAC-2
  43. Duration : 1 h 30 min
  44. Bit rate : 258 kb/s
  45. Channel(s) : 2 channels
  46. Channel layout : L R
  47. Sampling rate : 48.0 kHz
  48. Frame rate : 46.875 FPS (1024 SPF)
  49. Compression mode : Lossy
  50. Delay relative to video : -21 ms
  51. Stream size : 167 MiB (8%)
  52. Language : Chinese
  53. Default : Yes
  54. Forced : No
复制代码
狂/Ripples Across Stagnant Water [国语].Ripples.Across.Stagnant.Water.1992.WEB-DL.1080p.H264.AAC-TAG 2.06GB-2.png
狂/Ripples Across Stagnant Water [国语].Ripples.Across.Stagnant.Water.1992.WEB-DL.1080p.H264.AAC-TAG 2.06GB-3.png
狂/Ripples Across Stagnant Water [国语].Ripples.Across.Stagnant.Water.1992.WEB-DL.1080p.H264.AAC-TAG 2.06GB-4.png
狂/Ripples Across Stagnant Water [国语].Ripples.Across.Stagnant.Water.1992.WEB-DL.1080p.H264.AAC-TAG 2.06GB-5.png









回复

使用道具 举报

蓝光币
102
发表于 2024-4-18 15:52:06 | 显示全部楼层
楼主发贴辛苦了,谢谢楼主分享!我觉得蓝光电影网是注册对了!
回复

使用道具 举报

懒得打字嘛,点击右侧快捷回复 【右侧内容,后台自定义】
您需要登录后才可以回帖 登录 | 立即加入

本版积分规则

Archiver| |网站地图

Copyright © 2024 Comsenz Inc. Powered by 蓝光电影网

本站内容由用户自主分享和转载自互联网,转载目的在于传递更多信息,并不代表本网赞同其观点和对其真实性负责。

如有侵权、违反国家法律政策行为,请联系我们,我们会第一时间及时清除和处理!

举报反馈邮箱:4k1080.com@gmail.com

快速回复 返回顶部 返回列表