找回密码

查看: 519|回复: 4

神话 [全50集][国语中字].The.Myth.2010.Complete.WEB-DL.1080p.H264.AAC-TAG 49.71GB

[复制链接]
蓝光币
1917
发表于 2024-4-16 21:06:14 | 显示全部楼层 |阅读模式
神话 [全50集][国语中字].The.Myth.2010.Complete.WEB-DL.1080p.H264.AAC-TAG 49.71GB-1.jpg
◎译  名 The Myth
◎片  名 神话
◎年  代 2010
◎产  地 中国大陆
◎类  别 剧情 / 行动 / 奇异
◎语  言 普通话
◎上映日期 2010-01-02(中国大陆)
◎IMDb评分  7.7/10 from 61 users
◎IMDb链接  https://www.imdb.com/title/tt1682640
◎豆瓣评分 7.3/10 from 44946 users
◎豆瓣链接 https://movie.douban.com/subject/3732699/
◎集  数 50
◎片  长 46分钟
◎导  演 蒋家骏 Jeffrey Chiang
◎编  剧 李海蜀 Haishu Li
◎主  演 胡歌 Hugh
       白冰 Bing Bai
       张世 Shih Chang
       任泉 Quan Ren
       陈紫函 Zihan Chen
       金莎 Sha Jin
       李易祥 Yixiang Li
       谭凯 Kai Tan
       张萌 Meng Zhang


◎标  签 穿越 | 神话 | 电视剧 | 国产电视剧 | 古装 | 奇异 | 恋爱 | 中国

◎简  介  

  改编自电影版的《神话》。80后男孩易小川(胡歌 饰)来到父亲工作的考古现场,意外地卷入了一场夺宝斗争,与好友高要(张世 饰)一路穿越到了2200多年前的秦代。小川前后碰到了项羽(谭凯 饰)与刘邦(李易祥 饰),遂与二人结为兄弟,并鬼使神差的被上将军蒙恬(丁子峻 饰) 认成了弟弟蒙毅,小川由于现代人的鬼马搞笑被众多女子倾慕着,其中就有吕雉(陈紫函 饰)与吕素(金莎 饰)两姐妹,可是小川心中只成心外了解的图安公主玉漱(白冰 饰)。而高要则成为了巨猾臣赵高,认了跟妹妹高岚(张萌 饰)长相一样的宫女小月当义妹。小川的第27任女友高岚在和小川哥哥易大川(任泉 饰)一路寻觅他们着落光阴久生情。眼看秦国将亡,小川与玉漱公主能否长相厮守?高要又将何去何从?

  1. General
  2. Complete name : The.Myth.2010.E01.WEB-DL.1080p.H264.AAC-TAG.mp4
  3. Format : MPEG-4
  4. Format profile : Base Media
  5. Codec ID : isom (isom/iso2/avc1/mp41)
  6. File size : 1.29 GiB
  7. Duration : 44 min 8 s
  8. Overall bit rate : 4 172 kb/s
  9. Writing application : Lavf58.24.101

  10. Video
  11. ID : 1
  12. Format : AVC
  13. Format/Info : Advanced Video Codec
  14. Format profile : High@L4
  15. Format settings : CABAC / 3 Ref Frames
  16. Format settings, CABAC : Yes
  17. Format settings, Reference fra : 3 frames
  18. Codec ID : avc1
  19. Codec ID/Info : Advanced Video Coding
  20. Duration : 44 min 7 s
  21. Bit rate : 4 038 kb/s
  22. Width : 1 920 pixels
  23. Height : 1 080 pixels
  24. Display aspect ratio : 16:9
  25. Frame rate mode : Constant
  26. Frame rate : 25.000 FPS
  27. Color space : YUV
  28. Chroma subsampling : 4:2:0
  29. Bit depth : 8 bits
  30. Scan type : Progressive
  31. Bits/(Pixel*Frame) : 0.078
  32. Stream size : 1.24 GiB (97%)
  33. Color range : Limited
  34. Color primaries : BT.709
  35. Transfer characteristics : BT.709
  36. Matrix coefficients : BT.709
  37. Codec configuration box : avcC

  38. Audio
  39. ID : 2
  40. Format : AAC LC
  41. Format/Info : Advanced Audio Codec Low Complexity
  42. Codec ID : mp4a-40-2
  43. Duration : 44 min 8 s
  44. Bit rate mode : Constant
  45. Bit rate : 128 kb/s
  46. Channel(s) : 2 channels
  47. Channel layout : L R
  48. Sampling rate : 44.1 kHz
  49. Frame rate : 43.066 FPS (1024 SPF)
  50. Compression mode : Lossy
  51. Stream size : 40.4 MiB (3%)
  52. Default : Yes
  53. Alternate group : 1
复制代码














回复

使用道具 举报

蓝光币
1
发表于 2024-4-25 15:30:32 来自手机 | 显示全部楼层
6666666666666
回复 1 0

使用道具 举报

蓝光币
0
发表于 2024-4-17 22:33:02 | 显示全部楼层
楼主发贴辛苦了,谢谢楼主分享!我觉得蓝光电影网是注册对了!
回复 1 0

使用道具 举报

蓝光币
23
发表于 2024-4-17 08:49:23 | 显示全部楼层

楼主太厉害了!楼主,电影应该很好看我觉得蓝光电影网真是个好地方!
回复 1 0

使用道具 举报

蓝光币
0
发表于 3 天前 | 显示全部楼层
谢谢你的上传
回复

使用道具 举报

懒得打字嘛,点击右侧快捷回复 【右侧内容,后台自定义】
您需要登录后才可以回帖 登录 | 立即加入

本版积分规则

Archiver| |网站地图

Copyright © 2024 Comsenz Inc. Powered by 蓝光电影网

本站内容由用户自主分享和转载自互联网,转载目的在于传递更多信息,并不代表本网赞同其观点和对其真实性负责。

如有侵权、违反国家法律政策行为,请联系我们,我们会第一时间及时清除和处理!

举报反馈邮箱:4k1080.com@gmail.com

快速回复 返回顶部 返回列表