找回密码

查看: 1583|回复: 5

[悬疑] 破墓/파묘 [内封中字].Exhuma.2024.1080p.iTunes.WEB-DL.DD5.1.H.264-TAG 6.61GB

[复制链接]
蓝光币
1925
发表于 2024-4-22 17:30:43 | 显示全部楼层 |阅读模式
破墓/파묘 [内封中字].Exhuma.2024.1080p.iTunes.WEB-DL.DD5.1.H.264-TAG 6.61GB-1.jpg
◎译  名 破墓 / The Unearthed Grave / Exhuma
◎片  名 파묘
◎年  代 2024
◎产  地 韩国
◎类  别 悬疑 / 惊悚 / 可骇
◎语  言 韩语 / 日语 / 英语
◎上映日期 2024-02-16(柏林电影节) / 2024-02-22(韩国)
◎IMDb评分  7.4/10 from 2,785 users
◎IMDb链接  https://www.imdb.com/title/tt27802490/
◎豆瓣评分 7.1/10 from 4,363 users
◎豆瓣链接 https://movie.douban.com/subject/35490167/
◎片  长 134分钟
◎导  演 张宰贤 / Jae-hyun Jang
◎演  员 崔岷植 / Min-sik Choi (饰 金尚德)
      金高银 / Go-eun Kim (饰 花林)
      柳海真 / Hae-jin Yu (饰 高荣根)
      李到晛 / Do-hyun Lee (饰 奉吉)
      全镇基 / Jin-gi Jeon (饰 朴根贤)
      洪瑞俊 / Seo-joon Hong
      李大卫 / David Lee (饰 婚礼摄影师)
◎编  剧 张宰贤 / Jae-hyun Jang
◎行动特技 郑伦贤 / Jeong Yoonhun

◎简  介 

  在美国生活的某个敷裕家庭身上延续发生希奇的超自然现象,是以他们请来了在巫师当中著名的年轻巫师花林(金高银 饰)和奉吉(李到晛 饰)。
  花林和奉吉到达阿谁地方后救济了刚刚诞生的婴儿,大白了他们祖先黑暗的影子正在来临于那家人身上的究竟。
  花林和奉吉延续观察,为了驱除祖先向最棒的风海军尚德(崔岷植 饰)和入殓师荣根(柳海真 饰)请求帮助。惊奇的是那块墓地在韩国的某个偏僻村落的阴凉之处被发现,终极停止破墓。可是破墓的同时,宅兆下方的不吉之气起头爆发……

  1. General
  2. Unique ID               : 296661945108264719457975274301728555481 (0xDF2F032900F31526EEA9BC09A5FD01D9)
  3. Complete name           : Exhuma.2024.1080p.iTunes.WEB-DL.DD5.1.H.264-HHWEB.mkv
  4. Format                  : Matroska
  5. Format version          : Version 4
  6. File size               : 6.61 GiB
  7. Duration                : 2 h 13 min
  8. Overall bit rate        : 7 065 kb/s
  9. Encoded date            : UTC 2024-04-22 04:27:14
  10. Writing application     : mkvmerge v82.0 (\'I\'m The President\') 64-bit
  11. Writing library         : libebml v1.4.5 + libmatroska v1.7.1

  12. Video
  13. ID                      : 1
  14. Format                  : AVC
  15. Format/Info             : Advanced Video Codec
  16. Format profile          : High@L4
  17. Format settings         : CABAC / 4 Ref Frames
  18. Format settings, CABAC  : Yes
  19. Format settings, Reference frames        : 4 frames
  20. Codec ID                : V_MPEG4/ISO/AVC
  21. Duration                : 2 h 13 min
  22. Bit rate                : 6 679 kb/s
  23. Width                   : 1 920 pixels
  24. Height                  : 1 038 pixels
  25. Display aspect ratio    : 1.85:1
  26. Frame rate mode         : Constant
  27. Frame rate              : 23.976 (24000/1001) FPS
  28. Color space             : YUV
  29. Chroma subsampling      : 4:2:0
  30. Bit depth               : 8 bits
  31. Scan type               : Progressive
  32. Bits/(Pixel*Frame)      : 0.140
  33. Stream size             : 6.25 GiB (95%)
  34. Default                 : Yes
  35. Forced                  : No
  36. Color range             : Limited
  37. Color primaries         : BT.709
  38. Transfer characteristics: BT.709
  39. Matrix coefficients     : BT.709

  40. Audio
  41. ID                      : 2
  42. Format                  : AC-3
  43. Format/Info             : Audio Coding 3
  44. Commercial name         : Dolby Digital
  45. Codec ID                : A_AC3
  46. Duration                : 2 h 13 min
  47. Bit rate mode           : Constant
  48. Bit rate                : 384 kb/s
  49. Channel(s)              : 6 channels
  50. Channel layout          : L R C LFE Ls Rs
  51. Sampling rate           : 48.0 kHz
  52. Frame rate              : 31.250 FPS (1536 SPF)
  53. Compression mode        : Lossy
  54. Stream size             : 368 MiB (5%)
  55. Title                   : 한국어 [Dolby Digital 5.1]
  56. Language                : Korean
  57. Service kind            : Complete Main
  58. Default                 : Yes
  59. Forced                  : No

  60. Text
  61. ID                      : 3
  62. Format                  : UTF-8
  63. Codec ID                : S_TEXT/UTF8
  64. Codec ID/Info           : UTF-8 Plain Text
  65. Duration                : 2 h 8 min
  66. Bit rate                : 32 b/s
  67. Count of elements       : 1308
  68. Stream size             : 30.1 KiB (0%)
  69. Title                   : 简体中文
  70. Language                : Chinese
  71. Default                 : Yes
  72. Forced                  : No

  73. Menu
  74. 00:00:00.000            : en:Scene 1
  75. 00:00:07.966            : en:Chapter 1
  76. 00:18:25.980            : en:Chapter 2
  77. 00:30:06.139            : en:Chpater 3
  78. 01:04:40.505            : en:Chpater 4
  79. 01:15:00.458            : en:Chapter 5
  80. 01:33:20.850            : en:Chpater 6
  81. 01:57:19.456            : en:Chpater 7
复制代码
破墓/파묘 [内封中字].Exhuma.2024.1080p.iTunes.WEB-DL.DD5.1.H.264-TAG 6.61GB-2.png
破墓/파묘 [内封中字].Exhuma.2024.1080p.iTunes.WEB-DL.DD5.1.H.264-TAG 6.61GB-3.png
破墓/파묘 [内封中字].Exhuma.2024.1080p.iTunes.WEB-DL.DD5.1.H.264-TAG 6.61GB-4.png







回复

使用道具 举报

蓝光币
0
发表于 2024-4-22 19:56:05 来自手机 | 显示全部楼层
下载速度忒慢了这个资源
回复

使用道具 举报

蓝光币
328
发表于 2024-4-23 01:46:46 | 显示全部楼层
楼主发贴辛苦了,谢谢楼主分享!我觉得蓝光电影网是注册对了!
回复

使用道具 举报

蓝光币
204
发表于 2024-4-24 18:43:44 | 显示全部楼层

这个帖子不回对不起自己!我想我是一天也不能离开蓝光电影网。
回复

使用道具 举报

蓝光币
3
发表于 2024-4-29 19:38:03 | 显示全部楼层
楼主发贴辛苦了,谢谢楼主分享!我觉得蓝光电影网是注册对了!
回复

使用道具 举报

蓝光币
274
发表于 2024-4-30 20:47:32 | 显示全部楼层
谢谢楼主分享!
回复

使用道具 举报

懒得打字嘛,点击右侧快捷回复 【右侧内容,后台自定义】
您需要登录后才可以回帖 登录 | 立即加入

本版积分规则

Archiver| |网站地图

Copyright © 2024 Comsenz Inc. Powered by 蓝光电影网

本站内容由用户自主分享和转载自互联网,转载目的在于传递更多信息,并不代表本网赞同其观点和对其真实性负责。

如有侵权、违反国家法律政策行为,请联系我们,我们会第一时间及时清除和处理!

举报反馈邮箱:4k1080.com@gmail.com

快速回复 返回顶部 返回列表