找回密码

查看: 294|回复: 4

[剧情] 在世界中心呼唤爱/在世界的中心呼喊爱情(台) [DIY简繁字幕][正片+SP].Crying.Out.Love.In.The.Center.Of.The.World.2004.1080i.BluRay.AVC.LPCM.2.0-TAG 156.72GB

[复制链接]
蓝光币
1917
发表于 2024-4-23 23:25:56 | 显示全部楼层 |阅读模式
在天下中心呼唤爱/在天下的中心呼喊恋爱(台) [DIY简繁字幕][正片+SP].Crying.Out.Love.In.The.Center.Of.The.World.2004.1080i.BluRay.AVC.LPCM.2.0-TAG 156.72GB-1.jpg
◎译  名  在天下中心呼唤爱 / 在天下的中心呼喊恋爱(台) / Crying Out Love, in the Center of the World
◎片  名 天下の中心で、愛をさけぶ
◎年  代 2004
◎产  地 日本
◎类  别 剧情 / 恋爱
◎语  言 日语 / 英语
◎上映日期 2004-05-08(日本)
◎IMDb评分  7.2/10 from 3866 users
◎IMDb链接  https://www.imdb.com/title/tt0424430/
◎豆瓣评分 7.6/10 from 46841 users
◎豆瓣链接 https://movie.douban.com/subject/1315570/
◎导  演  行定勋 Isao Yukisada
◎编  剧  坂元裕二 Yûji Sakamoto / 行定勋 Isao Yukisada / 片山恭一 Kyouichi Katayama
◎主  演  大泽隆夫 Takao Ôsawa
          柴崎幸 Kou Shibasaki
          长泽雅美 Masami Nagasawa
          森山未来 Mirai Moriyama
          山崎努 Tsutomu Yamazaki
          宫藤官九郎 Kankurô Kudô
          津田宽治 Kanji Tsuda
          高桥平生 Issey Takahashi
          菅野莉央 Rio Kanno
          杉本哲太 Tetta Sugimoto
          西原亚希 Aki Nishihara
          宫崎将 Masaru Miyazaki
          儿岛雄一 Magy
          松田一沙 Kazusa Matsuda
          冈村洋一 Yôichi Okamura
          冈元夕纪子 Yukiko Okamoto
          尾野真千子 Machiko Ono
          堀北真希 Maki Horikita
          樋口可南子 Kanako Higuchi
          近藤芳正 Yoshimasa Kondô
          草村礼子 Reiko Kusamura
          坂野丹迪 Dandy Sakano
          大森南朋 Nao Omori
          谷津勋 Isao Yatsu
          小林麻耶 Maya Kobayashi
          天海祐希 Yuki Amami
          木内绿 Midori Kiuchi
          森田芳光 Yoshimitsu Morita
          田中美里 Misato Tanaka
          渡边美里 Misato Watanabe
          长野里美 Satomi Nagano
          大岛智子 Oshima Satoko

◎标  签  

◎简  介  

 暂无相关剧情先容

◎获奖情况  

 第28届日本电影学院奖  (2005)
话题奖最具话题演员奖 长泽雅美
最好影片(提名)
最好导演(提名) 行定勋
最好男配角(提名) 森山未来
最好女配角 长泽雅美
最好配乐(提名) 浦山秀彦 / 熊谷阳子
最好摄影 筱田升
最好美术指导(提名) 山口修
最好照明 中村裕树
最好录音(提名) 伊藤裕规
最好剪辑(提名) 今井刚
最好新人 森山未来

第29届报知映画赏  (2004)
最好女配角 长泽雅美

  1. DISC INFO:

  2. Disc Label: DISC1
  3. Disc Size: 44,838,703,041 bytes
  4. Protection: AACS
  5. Extras: BD-Java
  6. BDInfo: 0.7.5.7

  7. PLAYLIST REPORT:

  8. Name: 00000.MPLS
  9. Length: 3:08:49.351 (h:m:s.ms)
  10. Size: 43,907,985,408 bytes
  11. Total Bitrate: 31.00 Mbps

  12. VIDEO:

  13. Codec Bitrate Description
  14. ----- ------- -----------
  15. MPEG-4 AVC Video 27731 kbps 1080i / 29.970 fps / 16:9 / High Profile 4.1

  16. AUDIO:

  17. Codec Language Bitrate Description
  18. ----- -------- ------- -----------
  19. LPCM Audio Japanese 1536 kbps 2.0 / 48 kHz / 1536 kbps / 16-bit

  20. SUBTITLES:

  21. Codec Language Bitrate Description
  22. ----- -------- ------- -----------
  23. Presentation Graphics Japanese 92.359 kbps
  24. Presentation Graphics Chinese 20.224 kbps简中字幕
  25. Presentation Graphics Chinese 20.395 kbps繁中字幕

  26. FILES:

  27. Name Time In Length Size Total Bitrate
  28. ---- ------- ------ ---- -------------
  29. 00000.M2TS 0:00:00.000 0:46:46.003 10,969,454,592 31,274
  30. 00001.M2TS 0:46:46.003 0:46:50.374 10,990,768,128 31,286
  31. 00002.M2TS 1:33:36.377 0:48:55.933 11,088,556,032 30,215
  32. 00003.M2TS 2:22:32.310 0:46:17.040 10,859,206,656 31,283
复制代码
在天下中心呼唤爱/在天下的中心呼喊恋爱(台) [DIY简繁字幕][正片+SP].Crying.Out.Love.In.The.Center.Of.The.World.2004.1080i.BluRay.AVC.LPCM.2.0-TAG 156.72GB-2.jpg
在天下中心呼唤爱/在天下的中心呼喊恋爱(台) [DIY简繁字幕][正片+SP].Crying.Out.Love.In.The.Center.Of.The.World.2004.1080i.BluRay.AVC.LPCM.2.0-TAG 156.72GB-3.jpg
在天下中心呼唤爱/在天下的中心呼喊恋爱(台) [DIY简繁字幕][正片+SP].Crying.Out.Love.In.The.Center.Of.The.World.2004.1080i.BluRay.AVC.LPCM.2.0-TAG 156.72GB-4.jpg









回复

使用道具 举报

蓝光币
408
发表于 2024-4-24 08:58:31 | 显示全部楼层
谢谢分享!!!!!
回复

使用道具 举报

蓝光币
111
发表于 2024-4-24 11:44:22 | 显示全部楼层
楼主发贴辛苦了,谢谢楼主分享!我觉得蓝光电影网是注册对了!
回复

使用道具 举报

蓝光币
588
发表于 2024-4-24 16:14:56 | 显示全部楼层
谢谢楼主
回复

使用道具 举报

蓝光币
388
发表于 2024-5-1 10:01:57 | 显示全部楼层

楼主太厉害了!楼主,电影应该很好看我觉得蓝光电影网真是个好地方!
回复

使用道具 举报

懒得打字嘛,点击右侧快捷回复 【右侧内容,后台自定义】
您需要登录后才可以回帖 登录 | 立即加入

本版积分规则

Archiver| |网站地图

Copyright © 2024 Comsenz Inc. Powered by 蓝光电影网

本站内容由用户自主分享和转载自互联网,转载目的在于传递更多信息,并不代表本网赞同其观点和对其真实性负责。

如有侵权、违反国家法律政策行为,请联系我们,我们会第一时间及时清除和处理!

举报反馈邮箱:4k1080.com@gmail.com

快速回复 返回顶部 返回列表