找回密码

查看: 591|回复: 0

驯鹿宝宝 [第1季][全7集][中字].Baby.Reindeer.S01.2024.1080p.NF.WEB-DL.DDP5.1.Atmos.H.264-TAG 13.14GB

[复制链接]
蓝光币
1925
发表于 2024-4-24 14:14:55 | 显示全部楼层 |阅读模式
驯鹿宝宝 [第1季][全7集][中字].Baby.Reindeer.S01.2024.1080p.NF.WEB-DL.DDP5.1.Atmos.H.264-TAG 13.14GB-1.jpg
◎译   名  驯鹿宝宝
◎片   名  Baby Reindeer
◎年   代  2024
◎产   地  美国
◎类   别  剧情 / 悬疑 / 列传 / 历史
◎语   言  英语
◎上映 日期  2024-04-11(美国)
◎IMDb评分  N/A/10 from N/A users
◎IMDb链接  https://www.imdb.com/title/tt13649112/
◎豆瓣 评分  0/10 from 0 users
◎豆瓣 链接  https://movie.douban.com/subject/36151169/
◎编   剧  理查德·加德 Richard Gadd
◎主   演  理查德·加德 Richard Gadd
          杰西卡·古宁 Jessica Gunning
          丹尼·基兰 Danny Kirrane

◎简  介

  2019年《爱丁堡边沿》(Edinburgh Fringe)热播的一人舞台剧《驯鹿宝宝》(Baby Reindeer)以一个使人佩服的实在故事为根本,报告了编剧兼演员理查德·加德(Richard Gadd)与他的女跟踪者扭曲的关系,以及这对他的影响,由于他终极被迫面临一个深深的、黑暗的创伤。

  1. General
  2. Unique ID : 243530871829385513240131384817353965159 (0xB7365700026BFAF08EC0AD39CCA33E67)
  3. Complete name : Baby.Reindeer.S01E01.Episode.1.1080p.NF.WEB-DL.DDP5.1.Atmos.H.264-TAG.mkv
  4. Format : Matroska
  5. Format version : Version 4
  6. File size : 1.76 GiB
  7. Duration : 32 min 18 s
  8. Overall bit rate mode : Variable
  9. Overall bit rate : 7 783 kb/s
  10. Frame rate : 25.000 FPS
  11. Writing application : mkvmerge v83.0 ('Circle Of Friends') 64-bit
  12. Writing library : libebml v1.4.5 + libmatroska v1.7.1

  13. Video
  14. ID : 1
  15. Format : AVC
  16. Format/Info : Advanced Video Codec
  17. Format profile : High@L4
  18. Format settings : CABAC / 4 Ref Frames
  19. Format settings, CABAC : Yes
  20. Format settings, Reference : 4 frames
  21. Codec ID : V_MPEG4/ISO/AVC
  22. Duration : 32 min 18 s
  23. Bit rate mode : Variable
  24. Bit rate : 7 008 kb/s
  25. Maximum bit rate : 20.0 Mb/s
  26. Width : 1 920 pixels
  27. Height : 1 080 pixels
  28. Display aspect ratio : 16:9
  29. Frame rate mode : Constant
  30. Frame rate : 25.000 FPS
  31. Color space : YUV
  32. Chroma subsampling : 4:2:0
  33. Bit depth : 8 bits
  34. Scan type : Progressive
  35. Bits/(Pixel*Frame) : 0.135
  36. Stream size : 1.58 GiB (90%)
  37. Writing library : x264 core 148 r2727 7d026e8
  38. Encoding settings : cabac=1 / ref=4 / deblock=1:0:0 / analyse=0x3:0x111 / me=umh / subme=10 / psy=1 / psy_rd=1.00:0.00 / mixed_ref=1 / me_range=120 / chroma_me=1 / trellis=2 / 8x8dct=1 / cqm=0 / deadzone=21,11 / fast_pskip=1 / chroma_qp_offset=-2 / threads=6 / lookahead_threads=1 / sliced_threads=0 / nr=0 / decimate=1 / interlaced=0 / bluray_compat=0 / stitchable=1 / constrained_intra=0 / bframes=16 / b_pyramid=2 / b_adapt=2 / b_bias=0 / direct=3 / weightb=1 / open_gop=0 / weightp=2 / keyint=250 / keyint_min=126 / scenecut=0 / intra_refresh=0 / rc_lookahead=250 / rc=crf / mbtree=1 / crf=20.0 / qcomp=0.50 / qpmin=6 / qpmax=51 / qpstep=4 / vbv_maxrate=20000 / vbv_bufsize=25000 / crf_max=0.0 / nal_hrd=vbr / filler=0 / ip_ratio=1.40 / aq=1:0.80
  39. Language : English
  40. Default : Yes
  41. Forced : No

  42. Audio
  43. ID : 2
  44. Format : E-AC-3 JOC
  45. Format/Info : Enhanced AC-3 with Joint Object Coding
  46. Commercial name : Dolby Digital Plus with Dolby Atmos
  47. Codec ID : A_EAC3
  48. Duration : 32 min 18 s
  49. Bit rate mode : Constant
  50. Bit rate : 768 kb/s
  51. Channel(s) : 6 channels
  52. Channel layout : L R C LFE Ls Rs
  53. Sampling rate : 48.0 kHz
  54. Frame rate : 31.250 FPS (1536 SPF)
  55. Compression mode : Lossy
  56. Stream size : 177 MiB (10%)
  57. Language : English
  58. Service kind : Complete Main
  59. Default : Yes
  60. Forced : No
  61. Complexity index : 16
  62. Number of dynamic objects : 15
  63. Bed channel count : 1 channel
  64. Bed channel configuration : LFE

  65. Text #1
  66. ID : 3
  67. Format : UTF-8
  68. Codec ID : S_TEXT/UTF8
  69. Codec ID/Info : UTF-8 Plain Text
  70. Duration : 30 min 34 s
  71. Bit rate : 77 b/s
  72. Frame rate : 0.256 FPS
  73. Count of elements : 469
  74. Stream size : 17.4 KiB (0%)
  75. Language : English
  76. Default : No
  77. Forced : No

  78. Text #2
  79. ID : 4
  80. Format : UTF-8
  81. Codec ID : S_TEXT/UTF8
  82. Codec ID/Info : UTF-8 Plain Text
  83. Duration : 30 min 42 s
  84. Bit rate : 85 b/s
  85. Frame rate : 0.290 FPS
  86. Count of elements : 534
  87. Stream size : 19.2 KiB (0%)
  88. Title : SDH
  89. Language : English
  90. Default : No
  91. Forced : No

  92. Text #3
  93. ID : 5
  94. Format : UTF-8
  95. Codec ID : S_TEXT/UTF8
  96. Codec ID/Info : UTF-8 Plain Text
  97. Duration : 30 min 34 s
  98. Bit rate : 123 b/s
  99. Frame rate : 0.250 FPS
  100. Count of elements : 459
  101. Stream size : 27.6 KiB (0%)
  102. Language : Arabic
  103. Default : No
  104. Forced : No

  105. Text #4
  106. ID : 6
  107. Format : UTF-8
  108. Codec ID : S_TEXT/UTF8
  109. Codec ID/Info : UTF-8 Plain Text
  110. Duration : 30 min 34 s
  111. Bit rate : 67 b/s
  112. Frame rate : 0.246 FPS
  113. Count of elements : 451
  114. Stream size : 15.1 KiB (0%)
  115. Language : Czech
  116. Default : No
  117. Forced : No

  118. Text #5
  119. ID : 7
  120. Format : UTF-8
  121. Codec ID : S_TEXT/UTF8
  122. Codec ID/Info : UTF-8 Plain Text
  123. Duration : 30 min 34 s
  124. Bit rate : 67 b/s
  125. Frame rate : 0.222 FPS
  126. Count of elements : 408
  127. Stream size : 15.0 KiB (0%)
  128. Language : Danish
  129. Default : No
  130. Forced : No

  131. Text #6
  132. ID : 8
  133. Format : UTF-8
  134. Codec ID : S_TEXT/UTF8
  135. Codec ID/Info : UTF-8 Plain Text
  136. Duration : 30 min 37 s
  137. Bit rate : 64 b/s
  138. Frame rate : 0.243 FPS
  139. Count of elements : 447
  140. Stream size : 14.5 KiB (0%)
  141. Language : German
  142. Default : No
  143. Forced : No

  144. Text #7
  145. ID : 9
  146. Format : UTF-8
  147. Codec ID : S_TEXT/UTF8
  148. Codec ID/Info : UTF-8 Plain Text
  149. Duration : 30 min 34 s
  150. Bit rate : 109 b/s
  151. Frame rate : 0.251 FPS
  152. Count of elements : 461
  153. Stream size : 24.5 KiB (0%)
  154. Language : Greek
  155. Default : No
  156. Forced : No

  157. Text #8
  158. ID : 10
  159. Format : UTF-8
  160. Codec ID : S_TEXT/UTF8
  161. Codec ID/Info : UTF-8 Plain Text
  162. Duration : 30 min 34 s
  163. Bit rate : 66 b/s
  164. Frame rate : 0.252 FPS
  165. Count of elements : 462
  166. Stream size : 15.0 KiB (0%)
  167. Title : Latin American
  168. Language : Spanish (Latin America)
  169. Default : No
  170. Forced : No

  171. Text #9
  172. ID : 11
  173. Format : UTF-8
  174. Codec ID : S_TEXT/UTF8
  175. Codec ID/Info : UTF-8 Plain Text
  176. Duration : 30 min 34 s
  177. Bit rate : 64 b/s
  178. Frame rate : 0.249 FPS
  179. Count of elements : 456
  180. Stream size : 14.3 KiB (0%)
  181. Language : Spanish (ES)
  182. Default : No
  183. Forced : No

  184. Text #10
  185. ID : 12
  186. Format : UTF-8
  187. Codec ID : S_TEXT/UTF8
  188. Codec ID/Info : UTF-8 Plain Text
  189. Duration : 30 min 34 s
  190. Bit rate : 66 b/s
  191. Frame rate : 0.210 FPS
  192. Count of elements : 386
  193. Stream size : 14.8 KiB (0%)
  194. Language : Finnish
  195. Default : No
  196. Forced : No

  197. Text #11
  198. ID : 13
  199. Format : UTF-8
  200. Codec ID : S_TEXT/UTF8
  201. Codec ID/Info : UTF-8 Plain Text
  202. Duration : 30 min 34 s
  203. Bit rate : 71 b/s
  204. Frame rate : 0.232 FPS
  205. Count of elements : 426
  206. Stream size : 16.0 KiB (0%)
  207. Language : Filipino
  208. Default : No
  209. Forced : No

  210. Text #12
  211. ID : 14
  212. Format : UTF-8
  213. Codec ID : S_TEXT/UTF8
  214. Codec ID/Info : UTF-8 Plain Text
  215. Duration : 30 min 34 s
  216. Bit rate : 67 b/s
  217. Frame rate : 0.250 FPS
  218. Count of elements : 458
  219. Stream size : 15.1 KiB (0%)
  220. Language : French
  221. Default : No
  222. Forced : No

  223. Text #13
  224. ID : 15
  225. Format : UTF-8
  226. Codec ID : S_TEXT/UTF8
  227. Codec ID/Info : UTF-8 Plain Text
  228. Duration : 29 min 45 s
  229. Bit rate : 116 b/s
  230. Frame rate : 0.257 FPS
  231. Count of elements : 459
  232. Stream size : 25.3 KiB (0%)
  233. Language : Hebrew
  234. Default : No
  235. Forced : No

  236. Text #14
  237. ID : 16
  238. Format : UTF-8
  239. Codec ID : S_TEXT/UTF8
  240. Codec ID/Info : UTF-8 Plain Text
  241. Duration : 30 min 35 s
  242. Bit rate : 62 b/s
  243. Frame rate : 0.239 FPS
  244. Count of elements : 438
  245. Stream size : 14.1 KiB (0%)
  246. Language : Croatian
  247. Default : No
  248. Forced : No

  249. Text #15
  250. ID : 17
  251. Format : UTF-8
  252. Codec ID : S_TEXT/UTF8
  253. Codec ID/Info : UTF-8 Plain Text
  254. Duration : 30 min 34 s
  255. Bit rate : 66 b/s
  256. Frame rate : 0.238 FPS
  257. Count of elements : 436
  258. Stream size : 14.8 KiB (0%)
  259. Language : Hungarian
  260. Default : No
  261. Forced : No

  262. Text #16
  263. ID : 18
  264. Format : UTF-8
  265. Codec ID : S_TEXT/UTF8
  266. Codec ID/Info : UTF-8 Plain Text
  267. Duration : 30 min 34 s
  268. Bit rate : 64 b/s
  269. Frame rate : 0.245 FPS
  270. Count of elements : 450
  271. Stream size : 14.4 KiB (0%)
  272. Language : Indonesian
  273. Default : No
  274. Forced : No

  275. Text #17
  276. ID : 19
  277. Format : UTF-8
  278. Codec ID : S_TEXT/UTF8
  279. Codec ID/Info : UTF-8 Plain Text
  280. Duration : 30 min 34 s
  281. Bit rate : 68 b/s
  282. Frame rate : 0.239 FPS
  283. Count of elements : 439
  284. Stream size : 15.2 KiB (0%)
  285. Language : Italian
  286. Default : No
  287. Forced : No

  288. Text #18
  289. ID : 20
  290. Format : UTF-8
  291. Codec ID : S_TEXT/UTF8
  292. Codec ID/Info : UTF-8 Plain Text
  293. Duration : 30 min 34 s
  294. Bit rate : 54 b/s
  295. Frame rate : 0.260 FPS
  296. Count of elements : 477
  297. Stream size : 12.1 KiB (0%)
  298. Language : Japanese
  299. Default : No
  300. Forced : No

  301. Text #19
  302. ID : 21
  303. Format : UTF-8
  304. Codec ID : S_TEXT/UTF8
  305. Codec ID/Info : UTF-8 Plain Text
  306. Duration : 30 min 37 s
  307. Bit rate : 80 b/s
  308. Frame rate : 0.255 FPS
  309. Count of elements : 468
  310. Stream size : 18.0 KiB (0%)
  311. Language : Korean
  312. Default : No
  313. Forced : No

  314. Text #20
  315. ID : 22
  316. Format : UTF-8
  317. Codec ID : S_TEXT/UTF8
  318. Codec ID/Info : UTF-8 Plain Text
  319. Duration : 30 min 33 s
  320. Bit rate : 65 b/s
  321. Frame rate : 0.240 FPS
  322. Count of elements : 440
  323. Stream size : 14.7 KiB (0%)
  324. Language : Malay
  325. Default : No
  326. Forced : No

  327. Text #21
  328. ID : 23
  329. Format : UTF-8
  330. Codec ID : S_TEXT/UTF8
  331. Codec ID/Info : UTF-8 Plain Text
  332. Duration : 30 min 33 s
  333. Bit rate : 65 b/s
  334. Frame rate : 0.250 FPS
  335. Count of elements : 458
  336. Stream size : 14.7 KiB (0%)
  337. Language : Norwegian Bokmal
  338. Default : No
  339. Forced : No

  340. Text #22
  341. ID : 24
  342. Format : UTF-8
  343. Codec ID : S_TEXT/UTF8
  344. Codec ID/Info : UTF-8 Plain Text
  345. Duration : 30 min 34 s
  346. Bit rate : 65 b/s
  347. Frame rate : 0.237 FPS
  348. Count of elements : 435
  349. Stream size : 14.6 KiB (0%)
  350. Language : Dutch
  351. Default : No
  352. Forced : No

  353. Text #23
  354. ID : 25
  355. Format : UTF-8
  356. Codec ID : S_TEXT/UTF8
  357. Codec ID/Info : UTF-8 Plain Text
  358. Duration : 30 min 34 s
  359. Bit rate : 63 b/s
  360. Frame rate : 0.255 FPS
  361. Count of elements : 467
  362. Stream size : 14.2 KiB (0%)
  363. Language : Polish
  364. Default : No
  365. Forced : No

  366. Text #24
  367. ID : 26
  368. Format : UTF-8
  369. Codec ID : S_TEXT/UTF8
  370. Codec ID/Info : UTF-8 Plain Text
  371. Duration : 30 min 34 s
  372. Bit rate : 66 b/s
  373. Frame rate : 0.253 FPS
  374. Count of elements : 464
  375. Stream size : 14.9 KiB (0%)
  376. Title : Brazilian
  377. Language : Portuguese (BR)
  378. Default : No
  379. Forced : No

  380. Text #25
  381. ID : 27
  382. Format : UTF-8
  383. Codec ID : S_TEXT/UTF8
  384. Codec ID/Info : UTF-8 Plain Text
  385. Duration : 30 min 34 s
  386. Bit rate : 67 b/s
  387. Frame rate : 0.240 FPS
  388. Count of elements : 441
  389. Stream size : 15.1 KiB (0%)
  390. Language : Portuguese (PT)
  391. Default : No
  392. Forced : No

  393. Text #26
  394. ID : 28
  395. Format : UTF-8
  396. Codec ID : S_TEXT/UTF8
  397. Codec ID/Info : UTF-8 Plain Text
  398. Duration : 30 min 34 s
  399. Bit rate : 65 b/s
  400. Frame rate : 0.223 FPS
  401. Count of elements : 410
  402. Stream size : 14.7 KiB (0%)
  403. Language : Romanian
  404. Default : No
  405. Forced : No

  406. Text #27
  407. ID : 29
  408. Format : UTF-8
  409. Codec ID : S_TEXT/UTF8
  410. Codec ID/Info : UTF-8 Plain Text
  411. Duration : 30 min 34 s
  412. Bit rate : 106 b/s
  413. Frame rate : 0.253 FPS
  414. Count of elements : 464
  415. Stream size : 23.8 KiB (0%)
  416. Language : Russian
  417. Default : No
  418. Forced : No

  419. Text #28
  420. ID : 30
  421. Format : UTF-8
  422. Codec ID : S_TEXT/UTF8
  423. Codec ID/Info : UTF-8 Plain Text
  424. Duration : 30 min 34 s
  425. Bit rate : 70 b/s
  426. Frame rate : 0.216 FPS
  427. Count of elements : 397
  428. Stream size : 15.7 KiB (0%)
  429. Language : Swedish
  430. Default : No
  431. Forced : No

  432. Text #29
  433. ID : 31
  434. Format : UTF-8
  435. Codec ID : S_TEXT/UTF8
  436. Codec ID/Info : UTF-8 Plain Text
  437. Duration : 30 min 34 s
  438. Bit rate : 172 b/s
  439. Frame rate : 0.253 FPS
  440. Count of elements : 464
  441. Stream size : 38.6 KiB (0%)
  442. Language : Thai
  443. Default : No
  444. Forced : No

  445. Text #30
  446. ID : 32
  447. Format : UTF-8
  448. Codec ID : S_TEXT/UTF8
  449. Codec ID/Info : UTF-8 Plain Text
  450. Duration : 30 min 34 s
  451. Bit rate : 69 b/s
  452. Frame rate : 0.222 FPS
  453. Count of elements : 407
  454. Stream size : 15.6 KiB (0%)
  455. Language : Turkish
  456. Default : No
  457. Forced : No

  458. Text #31
  459. ID : 33
  460. Format : UTF-8
  461. Codec ID : S_TEXT/UTF8
  462. Codec ID/Info : UTF-8 Plain Text
  463. Duration : 30 min 34 s
  464. Bit rate : 113 b/s
  465. Frame rate : 0.245 FPS
  466. Count of elements : 449
  467. Stream size : 25.3 KiB (0%)
  468. Language : Ukrainian
  469. Default : No
  470. Forced : No

  471. Text #32
  472. ID : 34
  473. Format : UTF-8
  474. Codec ID : S_TEXT/UTF8
  475. Codec ID/Info : UTF-8 Plain Text
  476. Duration : 30 min 36 s
  477. Bit rate : 93 b/s
  478. Frame rate : 0.250 FPS
  479. Count of elements : 460
  480. Stream size : 20.9 KiB (0%)
  481. Language : Vietnamese
  482. Default : No
  483. Forced : No

  484. Text #33
  485. ID : 35
  486. Format : UTF-8
  487. Codec ID : S_TEXT/UTF8
  488. Codec ID/Info : UTF-8 Plain Text
  489. Duration : 30 min 34 s
  490. Bit rate : 68 b/s
  491. Frame rate : 0.252 FPS
  492. Count of elements : 462
  493. Stream size : 15.3 KiB (0%)
  494. Title : Simplified
  495. Language : Chinese (Simplified)
  496. Default : No
  497. Forced : No

  498. Text #34
  499. ID : 36
  500. Format : UTF-8
  501. Codec ID : S_TEXT/UTF8
  502. Codec ID/Info : UTF-8 Plain Text
  503. Duration : 30 min 34 s
  504. Bit rate : 55 b/s
  505. Frame rate : 0.257 FPS
  506. Count of elements : 472
  507. Stream size : 12.5 KiB (0%)
  508. Title : Traditional
  509. Language : Chinese (Traditional)
  510. Default : No
  511. Forced : No

  512. Menu
  513. 00:00:00.000 : en:Part 01
  514. 00:29:52.450 : en:Credits
复制代码
驯鹿宝宝 [第1季][全7集][中字].Baby.Reindeer.S01.2024.1080p.NF.WEB-DL.DDP5.1.Atmos.H.264-TAG 13.14GB-2.png 驯鹿宝宝 [第1季][全7集][中字].Baby.Reindeer.S01.2024.1080p.NF.WEB-DL.DDP5.1.Atmos.H.264-TAG 13.14GB-3.png 驯鹿宝宝 [第1季][全7集][中字].Baby.Reindeer.S01.2024.1080p.NF.WEB-DL.DDP5.1.Atmos.H.264-TAG 13.14GB-4.png 驯鹿宝宝 [第1季][全7集][中字].Baby.Reindeer.S01.2024.1080p.NF.WEB-DL.DDP5.1.Atmos.H.264-TAG 13.14GB-5.png 驯鹿宝宝 [第1季][全7集][中字].Baby.Reindeer.S01.2024.1080p.NF.WEB-DL.DDP5.1.Atmos.H.264-TAG 13.14GB-6.png 驯鹿宝宝 [第1季][全7集][中字].Baby.Reindeer.S01.2024.1080p.NF.WEB-DL.DDP5.1.Atmos.H.264-TAG 13.14GB-7.png 驯鹿宝宝 [第1季][全7集][中字].Baby.Reindeer.S01.2024.1080p.NF.WEB-DL.DDP5.1.Atmos.H.264-TAG 13.14GB-8.png 驯鹿宝宝 [第1季][全7集][中字].Baby.Reindeer.S01.2024.1080p.NF.WEB-DL.DDP5.1.Atmos.H.264-TAG 13.14GB-9.png 驯鹿宝宝 [第1季][全7集][中字].Baby.Reindeer.S01.2024.1080p.NF.WEB-DL.DDP5.1.Atmos.H.264-TAG 13.14GB-10.png









回复

使用道具 举报

懒得打字嘛,点击右侧快捷回复 【右侧内容,后台自定义】
您需要登录后才可以回帖 登录 | 立即加入

本版积分规则

Archiver| |网站地图

Copyright © 2024 Comsenz Inc. Powered by 蓝光电影网

本站内容由用户自主分享和转载自互联网,转载目的在于传递更多信息,并不代表本网赞同其观点和对其真实性负责。

如有侵权、违反国家法律政策行为,请联系我们,我们会第一时间及时清除和处理!

举报反馈邮箱:4k1080.com@gmail.com

快速回复 返回顶部 返回列表