找回密码

查看: 498|回复: 2

[剧情] 沙漠之花 [DIY简繁英双语字幕].Desert.Flower.2009.1080p.Blu-ray.AVC.DTS-HD.MA.5.1-TAG 23.28GB

[复制链接]
蓝光币
2048
发表于 2024-4-24 17:32:01 | 显示全部楼层 |阅读模式
沙漠之花 [DIY简繁英双语字幕].Desert.Flower.2009.1080p.Blu-ray.AVC.DTS-HD.MA.5.1-TAG 23.28GB-1.jpg

◎译  名 沙漠之花 / Wüstenblume
◎片  名 Desert Flower
◎年  代 2009
◎产  地 英国 / 德国 / 奥天时 / 法国
◎类  别 剧情 / 列传
◎语  言 英语 / 法语
◎上映日期 2009-09-05(威尼斯电影节) / 2009-09-24(德国)
◎IMDb评分  7.3/10 from 14,187 users
◎IMDb链接  https://www.imdb.com/title/tt1054580/
◎豆瓣评分 8.8/10 from 118,980 users
◎豆瓣链接 https://movie.douban.com/subject/3430271/
◎片  长 128分钟
◎导  演 雪莉·霍曼 / Sherry Hormann
◎演  员 索亚那·奥马尔-斯切戈 / Soraya Omar-Scego
      莉亚·科贝德 / Liya Kebede
      莎莉·霍金斯 / Sally Hawkins
      梅拉·沙尔 / Meera Syal
      克雷格·帕金森 / Craig Parkinson
      马特·考夫曼 / Matt Kaufman
      蒂莫西·斯波 / Timothy Spall
      普尚特·普拉巴卡尔 / Prashant Prabhakar
      安东尼·麦凯 / Anthony Mackie
      提姆·塞菲 / Tim Seyfi
      特蕾莎·邱吉尔 / Teresa Churcher
      Eckart Friz Eckart Friz
      茱丽叶特·斯蒂文森 / Juliet Stevenson
      奈杰尔·贝茨 / Nigel Betts
      阿纳斯塔西娅·希尔 / Anastasia Hille
◎编  剧 富丽丝•迪里 / Waris Dirie
      雪莉·霍曼 / Sherry Hormann
      Smita Bhide Smita Bhide
◎制  片  人 Bettina Reitz Bettina Reitz
      Benjamin Herrmann Benjamin Herrmann
      Peter Herrmann Peter Herrmann
      蒂尔·施威格 / Til Schweiger
      丹尼·克鲁兹 / Danny Krausz
      Peter Heilrath Peter Heilrath
◎音  乐 马丁·托德沙罗 / Martin Todsharow
◎摄  影 Ken Kelsch Ken Kelsch
◎剪  辑 Clara Fabry Clara Fabry
◎美  术 Matthias Klemme Matthias Klemme
      Alexandra Walker Alexandra Walker
◎服  装 嘉儿勒·宾德 / Gabriele Binder
◎副  导  演 Greg Staley Greg Staley
      Robert Lopez Robert Lopez
◎视觉殊效 乌尔里希·蔡德勒 / Ulrich Zeidler
      Denis Behnke Denis Behnke

◎简  介 

  华莉丝(莉亚•科贝德 Liya Kebede 饰)诞生在索马里的沙漠和母亲过着游牧民族的生活。在三岁时,华莉丝依照索马里风俗就被施以女性割礼。十二岁时父亲为了获得五头骆驼,要将华莉丝嫁给六十岁的老叟。就在出嫁前夜,华莉丝在母亲的默许下,在沙漠中徒步很久投靠摩加迪沙的外祖母,也在外祖母那边获得了去给那时索马里驻英国大使夫人的阿姨作女佣的机遇。到英国后未几,索马里爆发战争,旧政府被颠覆,华莉丝趁乱再次出逃大使馆而流浪英国陌头。
  华莉丝在陌头相逢了收留自己的玛丽莲(莎莉•霍金斯 Sally Hawkins 饰),随着又在打工的餐厅里碰到伯乐,终极被挖掘成为天下名模,并投身于妇女束缚奇迹。
  电影《沙漠之花》是按照诞生于索马里的黑人模特华莉丝•迪里的自传畅销书改编。

◎获奖情况 

  第57届圣塞巴斯蒂安国际电影节 (2009)
  观众挑选奖

  1. DISC INFO:
  2. Disc Title: Desert Flower
  3. Disc Label: ɳĮ֮»¨.Desert.Flower.2009.1080p.Blu-ray.AVC.DTS-HD.MA.5.1-TAG
  4. Disc Size: 24,997,106,247 bytes
  5. Protection: AACS
  6. BDInfo: 0.8.0.1b

  7. PLAYLIST REPORT:

  8. Name: 00000.MPLS
  9. Length: 02:17:18.355 (h:m:s.ms)
  10. Size: 23,091,744,768 bytes
  11. Total Bitrate: 22.42 Mbps

  12. VIDEO:

  13. Codec Bitrate Description
  14. --------------- ------------- -----------
  15. MPEG-4 AVC Video 16,001 kbps 1080p / 23.976 fps / 16:9 / High Profile 4.1

  16. AUDIO:

  17. Codec Language Bitrate Description
  18. --------------- ------------- ------------- -----------
  19. DTS-HD Master Audio English 2875 kbps 5.1 / 48 kHz / 2875 kbps / 24-bit (DTS Core: 5.1 / 48 kHz / 1509 kbps / 24-bit)
  20. DTS-HD Master Audio English 1989 kbps 2.0 / 48 kHz / 1989 kbps / 24-bit (DTS Core: 2.0 / 48 kHz / 1509 kbps / 24-bit)

  21. SUBTITLES:

  22. Codec Language Bitrate Description
  23. --------------- ------------- ------------- -----------
  24. Presentation Graphics English 11.24 kbps 1920x1080 / 1014 Captions
  25. Presentation Graphics Chinese 15.81 kbps 1920x1080 / 1198 Captions 简体中文
  26. Presentation Graphics Chinese 16.28 kbps 1920x1080 / 1198 Captions 繁体中文
  27. Presentation Graphics Chinese 25.84 kbps 1920x1080 / 1207 Captions 简英双语
  28. Presentation Graphics Chinese 26.31 kbps 1920x1080 / 1207 Captions 繁英双语

  29. FILES:

  30. Name Time In Length Size Total Bitrate
  31. --------------- ------------- ------------- ------------- -------------
  32. 00024.M2TS 0:00:00.000 0:00:03.003 17,381,376 46,956 kbps
  33. 00004.M2TS 0:00:03.003 2:17:14.851 23,061,559,296 22,404 kbps
  34. 00000.M2TS 2:17:17.854 0:00:00.500 12,804,096 223,268 kbps
复制代码
沙漠之花 [DIY简繁英双语字幕].Desert.Flower.2009.1080p.Blu-ray.AVC.DTS-HD.MA.5.1-TAG 23.28GB-2.png

沙漠之花 [DIY简繁英双语字幕].Desert.Flower.2009.1080p.Blu-ray.AVC.DTS-HD.MA.5.1-TAG 23.28GB-3.png

沙漠之花 [DIY简繁英双语字幕].Desert.Flower.2009.1080p.Blu-ray.AVC.DTS-HD.MA.5.1-TAG 23.28GB-4.png

沙漠之花 [DIY简繁英双语字幕].Desert.Flower.2009.1080p.Blu-ray.AVC.DTS-HD.MA.5.1-TAG 23.28GB-5.png

沙漠之花 [DIY简繁英双语字幕].Desert.Flower.2009.1080p.Blu-ray.AVC.DTS-HD.MA.5.1-TAG 23.28GB-6.png









回复

使用道具 举报

蓝光币
442
发表于 2024-4-26 19:42:12 | 显示全部楼层

楼主太厉害了!楼主,电影应该很好看我觉得蓝光电影网真是个好地方!
回复

使用道具 举报

蓝光币
96
发表于 2024-5-6 14:05:57 | 显示全部楼层
楼主发贴辛苦了,谢谢楼主分享!我觉得蓝光电影网是注册对了!
回复

使用道具 举报

懒得打字嘛,点击右侧快捷回复 【右侧内容,后台自定义】
您需要登录后才可以回帖 登录 | 立即加入

本版积分规则

Archiver| |网站地图

Copyright © 2024 Comsenz Inc. Powered by 蓝光电影网

本站内容由用户自主分享和转载自互联网,转载目的在于传递更多信息,并不代表本网赞同其观点和对其真实性负责。

如有侵权、违反国家法律政策行为,请联系我们,我们会第一时间及时清除和处理!

举报反馈邮箱:4k1080.com@gmail.com

快速回复 返回顶部 返回列表