找回密码

查看: 322|回复: 4

[2160p-WEB] 月球叛军:火之女.Rebel.Moon.Part.One.A.Child.of.Fire.2023.Multi.19.Eng.Fre.Ger.Ita.Por.Spa.2160p.WEBMux.DV.HDR.HEVC.Atmos-SGF 31.90GB

[复制链接]
蓝光币
1917
发表于 2024-4-25 14:25:16 | 显示全部楼层 |阅读模式


◎译  名 月球叛军:火之女 / Rebel Moon—第1部:火之女 / 卫星叛军:火之女 / 月球叛军1 / 叛逆行星 / 叛逆之月 / 月球叛军 / Rebel Moon / Rebel Moon - Part One: A Child of Fire
◎片  名 Rebel Moon: A Child of Fire
◎年  代 2023
◎产  地 美国 / 匈牙利 / 瑞典 / 丹麦 / 英国
◎类  别 剧情 / 行动 / 科幻 / 奇异 / 冒险
◎语  言 英语
◎上映日期 2023-12-15(美国点映) / 2023-12-21(美国收集)
◎IMDb评星  ★★★★★✦☆☆☆☆
◎IMDb评分  5.6/10 from 111,723 users
◎IMDb链接  https://www.imdb.com/title/tt14998742/
◎豆瓣评星 ★★✦☆☆
◎豆瓣评分 5.2/10 from 14,188 users
◎豆瓣链接 https://movie.douban.com/subject/35517441/
◎片  长 133分钟
◎导  演 扎克·施奈德 / Zack Snyder
◎演  员 索菲亚·波多拉 / Sofia Boutella | 饰 柯拉 Kora
      艾德·斯克林 / Ed Skrein | 饰 Balisarius
      克利欧佩特拉·科尔曼 / Cleopatra Coleman | 饰 Devra Bloodaxe
      加利·艾尔维斯 / Cary Elwes
      安东尼·霍普金斯 / Anthony Hopkins | 配 Jimmy
      查理·汉纳姆 / Charlie Hunnam | 饰 Kai
      吉娜·马隆 / Jena Malone | 饰 Harmada
      米希尔·赫伊斯曼 / Michiel Huisman | 饰 Gunnar
      寇瑞·斯托尔 / Corey Stoll
      杰曼·翰苏 / Djimon Hounsou | 饰 General Titus
      斯图尔特·马丁 / Stuart Martin
      裴斗娜 / Doona Bae | 饰 Nemesis
      多米尼克·伯吉斯 / Dominic Burgess | 饰 Dash Thif
      里安·里斯 / Rhian Rees
      阿方索·埃雷拉 / Alfonso Herrera
      雷·费舍尔 / Ray Fisher | 饰 Blood Axe
      弗拉·菲 / Fra Fee | 饰 Regent Balisarius
      斯塔兹·奈尔 / Staz Nair | 饰 Tarak
      丹尼埃尔·布鲁吉奥 / Danielle Burgio | 饰 Inge
      雷·波特 / Ray Porter
      E·达菲 / E. Duffy | 饰 Milius
      英格瓦·埃盖特·西古德松 / Ingvar Eggert Sigurðsson | 饰 Hagen
      金斯顿·福斯特 / Kingston Foster | 饰 Edda
      贾斯汀·皮尔斯 / Justin Price | 饰 Rebel Pilot
      艾伦·李·哈弗 / Allen Lee Haff | 饰 Soldier
      格雷格·克列克 / Greg Kriek | 饰 Marcus
      克里斯托弗·马修·库克 / Christopher Matthew Cook | 饰 Ximon
      乔凡尼·洛佩斯 / Giovanni Lopes | 饰 Man Of Daggus
      Sisse Søby Sisse Søby | 饰 Astrid
      马克·斯达格 / Mark Steger | 饰 Lifty
       John Orr | 饰 Priest
      马特·诺兰 / Matt Nolan | 饰 Sgt. Loader
      马克斯·迪肯 / Max Deacon
      加里·诺希利 / Gary Nohealii | 饰 Burning planet's king
      朱利安·杜尔西·维达 / Jullian Dulce Vida | 饰 Samandra
      山姆巴斯 / Sam Bass | 饰 Gladiator #1
      肯德尔·威尔斯 / Kendall Wells | 饰 Kaan
      汤姆·沃斯 / Tomm Voss | 饰 Kullen
      特莉萨娜 / Trishna | 饰 Lady in Mourning
      Yu Beng Lim Yu Beng Lim | 饰 Heron
      埃文·沙夫兰 / Evan Shafran | 饰 Gunnery Crew / Imperium Soldier
      托尔·科耐 / Thor Knai | 饰 Hjalmar
      薇拉·迈尔斯 / Vera Myers | 饰 Toan Priestess
      费尔·米凯拉·格里芬 / Fair Micaela Griffin | 饰 Thresher
      香农·本斯顿 / Shannon Bengston | 饰 Thresher
      Brian Machleit Brian Machleit | 饰 Launch attack pilot
      戴维·阿斯通 / David Astone | 饰 Patron
      杰·哈科特 / Jay Hector
      夏洛特·麦基 / Charlotte Maggi | 饰 Sam
      斯凯·杨 / Sky Yang | 饰 Aris
◎编  剧 扎克·施奈德 / Zack Snyder
      库尔特·约恩斯塔德 / Kurt Johnstad
      谢伊·哈顿 / Shay Hatten
◎制  片  人 扎克·施奈德 / Zack Snyder
◎摄  影 扎克·施奈德 / Zack Snyder
◎简  介 
  广袤的银河系,已经被名为巴里萨利斯(艾德·斯克林 Ed Skrein 饰)的暴君所统治,并建立起庞大而残暴的帝国。位于银河系边沿的一座殖民星球,人们过着拮据麻烦的生活。这一天,帝国军舰忽然出现在星球上空,狞恶的军官出现在群众眼前,他掉臂当地人的生存和死活,号令他们在规按时候内交够充足的食粮。军官走后,留下一队兵士监视群众劳作。谁曾想,一次突发事务致使女孩柯拉(索菲亚·波多拉 Sofia Boutella 饰)和帝国的机械人吉米(安东尼·霍普金斯 Anthony Hopkins 配音)抵挡并杀掉了这些兵士。为了匹敌巴里萨利斯的雄师,柯拉等人动身前往抵抗构造“血斧”。
  一场冒险就此展开……
  1. General
  2. Unique ID: 187791819646762154999807254093610544575 (0x8D47638D6F306AA459E3A76FC29EEDBF)
  3. Complete name: Rebel.Moon.Part.One.A.Child.of.Fire.2023.Multi.19.Eng.Fre.Ger.Ita.Por.Spa.2160p.WEBMux.DV.HDR.HEVC.Atmos-SGF.mkv
  4. Format: Matroska
  5. Format version: Version 4
  6. File size: 31.9 GiB
  7. Duration: 2 h 15 min
  8. Overall bit rate: 33.6 Mb/s
  9. Frame rate: 24.000 FPS
  10. Encoded date: 2024-04-20 18:23:59 UTC
  11. Writing application: mkvmerge v83.0 ('Circle Of Friends') 64-bit
  12. Writing library: libebml v1.4.5 + libmatroska v1.7.1
  13. Video
  14. ID: 1
  15. Format: HEVC
  16. Format/Info: High Efficiency Video Coding
  17. Format profile: Main 10@L5@Main
  18. HDR format: Dolby Vision, Version 1.0, Profile 8.1, dvhe.08.06, BL+RPU, HDR10 compatible / SMPTE ST 2086, Version HDR10, HDR10 compatible
  19. Codec ID: V_MPEGH/ISO/HEVC
  20. Duration: 2 h 15 min
  21. Bit rate: 19.0 Mb/s
  22. Width: 3 840 pixels
  23. Height: 2 160 pixels
  24. Display aspect ratio: 16:9
  25. Frame rate mode: Constant
  26. Frame rate: 24.000 FPS
  27. Color space: YUV
  28. Chroma subsampling: 4:2:0 (Type 2)
  29. Bit depth: 10 bits
  30. Bits/(Pixel*Frame): 0.095
  31. Stream size: 18.0 GiB (57%)
  32. Default: Yes
  33. Forced: No
  34. Color range: Limited
  35. Color primaries: BT.2020
  36. Transfer characteristics: PQ
  37. Matrix coefficients: BT.2020 non-constant
  38. Mastering display color primaries: Display P3
  39. Mastering display luminance: min: 0.0001 cd/m2, max: 1000 cd/m2
  40. Maximum Content Light Level: 410 cd/m2
  41. Maximum Frame-Average Light Level: 399 cd/m2
  42. Audio 1
  43. ID: 2
  44. Format: E-AC-3 JOC
  45. Format/Info: Enhanced AC-3 with Joint Object Coding
  46. Commercial name: Dolby Digital Plus with Dolby Atmos
  47. Codec ID: A_EAC3
  48. Duration: 2 h 15 min
  49. Bit rate mode: Constant
  50. Bit rate: 768 kb/s
  51. Channel(s): 6 channels
  52. Channel layout: L R C LFE Ls Rs
  53. Sampling rate: 48.0 kHz
  54. Frame rate: 31.250 FPS (1536 SPF)
  55. Compression mode: Lossy
  56. Stream size: 747 MiB (2%)
  57. Title: English [Dolby Digital Plus Atmos 5.1]
  58. Language: English
  59. Service kind: Complete Main
  60. Default: Yes
  61. Forced: No
  62. Complexity index: 16
  63. Number of dynamic objects: 15
  64. Bed channel count: 1 channel
  65. Bed channel configuration: LFE
  66. Audio 2
  67. ID: 3
  68. Format: E-AC-3 JOC
  69. Format/Info: Enhanced AC-3 with Joint Object Coding
  70. Commercial name: Dolby Digital Plus with Dolby Atmos
  71. Codec ID: A_EAC3
  72. Duration: 2 h 15 min
  73. Bit rate mode: Constant
  74. Bit rate: 768 kb/s
  75. Channel(s): 6 channels
  76. Channel layout: L R C LFE Ls Rs
  77. Sampling rate: 48.0 kHz
  78. Frame rate: 31.250 FPS (1536 SPF)
  79. Compression mode: Lossy
  80. Stream size: 747 MiB (2%)
  81. Title: French (France) [Dolby Digital Plus Atmos 5.1]
  82. Language: French (FR)
  83. Service kind: Complete Main
  84. Default: No
  85. Forced: No
  86. Complexity index: 16
  87. Number of dynamic objects: 15
  88. Bed channel count: 1 channel
  89. Bed channel configuration: LFE
  90. Audio 3
  91. ID: 4
  92. Format: E-AC-3 JOC
  93. Format/Info: Enhanced AC-3 with Joint Object Coding
  94. Commercial name: Dolby Digital Plus with Dolby Atmos
  95. Codec ID: A_EAC3
  96. Duration: 2 h 15 min
  97. Bit rate mode: Constant
  98. Bit rate: 768 kb/s
  99. Channel(s): 6 channels
  100. Channel layout: L R C LFE Ls Rs
  101. Sampling rate: 48.0 kHz
  102. Frame rate: 31.250 FPS (1536 SPF)
  103. Compression mode: Lossy
  104. Stream size: 747 MiB (2%)
  105. Title: German [Dolby Digital Plus Atmos 5.1]
  106. Language: German
  107. Service kind: Complete Main
  108. Default: No
  109. Forced: No
  110. Complexity index: 16
  111. Number of dynamic objects: 15
  112. Bed channel count: 1 channel
  113. Bed channel configuration: LFE
  114. Audio 4
  115. ID: 5
  116. Format: E-AC-3 JOC
  117. Format/Info: Enhanced AC-3 with Joint Object Coding
  118. Commercial name: Dolby Digital Plus with Dolby Atmos
  119. Codec ID: A_EAC3
  120. Duration: 2 h 15 min
  121. Bit rate mode: Constant
  122. Bit rate: 768 kb/s
  123. Channel(s): 6 channels
  124. Channel layout: L R C LFE Ls Rs
  125. Sampling rate: 48.0 kHz
  126. Frame rate: 31.250 FPS (1536 SPF)
  127. Compression mode: Lossy
  128. Stream size: 747 MiB (2%)
  129. Title: Italian [Dolby Digital Plus Atmos 5.1]
  130. Language: Italian
  131. Service kind: Complete Main
  132. Default: No
  133. Forced: No
  134. Complexity index: 16
  135. Number of dynamic objects: 15
  136. Bed channel count: 1 channel
  137. Bed channel configuration: LFE
  138. Audio 5
  139. ID: 6
  140. Format: E-AC-3 JOC
  141. Format/Info: Enhanced AC-3 with Joint Object Coding
  142. Commercial name: Dolby Digital Plus with Dolby Atmos
  143. Codec ID: A_EAC3
  144. Duration: 2 h 15 min
  145. Bit rate mode: Constant
  146. Bit rate: 768 kb/s
  147. Channel(s): 6 channels
  148. Channel layout: L R C LFE Ls Rs
  149. Sampling rate: 48.0 kHz
  150. Frame rate: 31.250 FPS (1536 SPF)
  151. Compression mode: Lossy
  152. Stream size: 747 MiB (2%)
  153. Title: Portuguese (Brazil) [Dolby Digital Plus Atmos 5.1]
  154. Language: Portuguese (BR)
  155. Service kind: Complete Main
  156. Default: No
  157. Forced: No
  158. Complexity index: 16
  159. Number of dynamic objects: 15
  160. Bed channel count: 1 channel
  161. Bed channel configuration: LFE
  162. Audio 6
  163. ID: 7
  164. Format: E-AC-3 JOC
  165. Format/Info: Enhanced AC-3 with Joint Object Coding
  166. Commercial name: Dolby Digital Plus with Dolby Atmos
  167. Codec ID: A_EAC3
  168. Duration: 2 h 15 min
  169. Bit rate mode: Constant
  170. Bit rate: 768 kb/s
  171. Channel(s): 6 channels
  172. Channel layout: L R C LFE Ls Rs
  173. Sampling rate: 48.0 kHz
  174. Frame rate: 31.250 FPS (1536 SPF)
  175. Compression mode: Lossy
  176. Stream size: 747 MiB (2%)
  177. Title: Spanish (Spain) [Dolby Digital Plus Atmos 5.1]
  178. Language: Spanish (ES)
  179. Service kind: Complete Main
  180. Default: No
  181. Forced: No
  182. Complexity index: 16
  183. Number of dynamic objects: 15
  184. Bed channel count: 1 channel
  185. Bed channel configuration: LFE
  186. Audio 7
  187. ID: 8
  188. Format: E-AC-3 JOC
  189. Format/Info: Enhanced AC-3 with Joint Object Coding
  190. Commercial name: Dolby Digital Plus with Dolby Atmos
  191. Codec ID: A_EAC3
  192. Duration: 2 h 15 min
  193. Bit rate mode: Constant
  194. Bit rate: 768 kb/s
  195. Channel(s): 6 channels
  196. Channel layout: L R C LFE Ls Rs
  197. Sampling rate: 48.0 kHz
  198. Frame rate: 31.250 FPS (1536 SPF)
  199. Compression mode: Lossy
  200. Stream size: 747 MiB (2%)
  201. Title: Spanish (Latin America) [Dolby Digital Plus Atmos 5.1]
  202. Language: Spanish (Latin America)
  203. Service kind: Complete Main
  204. Default: No
  205. Forced: No
  206. Complexity index: 16
  207. Number of dynamic objects: 15
  208. Bed channel count: 1 channel
  209. Bed channel configuration: LFE
  210. Audio 8
  211. ID: 9
  212. Format: E-AC-3 JOC
  213. Format/Info: Enhanced AC-3 with Joint Object Coding
  214. Commercial name: Dolby Digital Plus with Dolby Atmos
  215. Codec ID: A_EAC3
  216. Duration: 2 h 15 min
  217. Bit rate mode: Constant
  218. Bit rate: 768 kb/s
  219. Channel(s): 6 channels
  220. Channel layout: L R C LFE Ls Rs
  221. Sampling rate: 48.0 kHz
  222. Frame rate: 31.250 FPS (1536 SPF)
  223. Compression mode: Lossy
  224. Stream size: 747 MiB (2%)
  225. Title: Czech [Dolby Digital Plus Atmos 5.1]
  226. Language: Czech
  227. Service kind: Complete Main
  228. Default: No
  229. Forced: No
  230. Complexity index: 16
  231. Number of dynamic objects: 15
  232. Bed channel count: 1 channel
  233. Bed channel configuration: LFE
  234. Audio 9
  235. ID: 10
  236. Format: E-AC-3 JOC
  237. Format/Info: Enhanced AC-3 with Joint Object Coding
  238. Commercial name: Dolby Digital Plus with Dolby Atmos
  239. Codec ID: A_EAC3
  240. Duration: 2 h 15 min
  241. Bit rate mode: Constant
  242. Bit rate: 768 kb/s
  243. Channel(s): 6 channels
  244. Channel layout: L R C LFE Ls Rs
  245. Sampling rate: 48.0 kHz
  246. Frame rate: 31.250 FPS (1536 SPF)
  247. Compression mode: Lossy
  248. Stream size: 747 MiB (2%)
  249. Title: Filipino [Dolby Digital Plus Atmos 5.1]
  250. Language: Filipino
  251. Service kind: Complete Main
  252. Default: No
  253. Forced: No
  254. Complexity index: 16
  255. Number of dynamic objects: 15
  256. Bed channel count: 1 channel
  257. Bed channel configuration: LFE
  258. Audio 10
  259. ID: 11
  260. Format: E-AC-3 JOC
  261. Format/Info: Enhanced AC-3 with Joint Object Coding
  262. Commercial name: Dolby Digital Plus with Dolby Atmos
  263. Codec ID: A_EAC3
  264. Duration: 2 h 15 min
  265. Bit rate mode: Constant
  266. Bit rate: 768 kb/s
  267. Channel(s): 6 channels
  268. Channel layout: L R C LFE Ls Rs
  269. Sampling rate: 48.0 kHz
  270. Frame rate: 31.250 FPS (1536 SPF)
  271. Compression mode: Lossy
  272. Stream size: 747 MiB (2%)
  273. Title: Hindi [Dolby Digital Plus Atmos 5.1]
  274. Language: Hindi
  275. Service kind: Complete Main
  276. Default: No
  277. Forced: No
  278. Complexity index: 16
  279. Number of dynamic objects: 15
  280. Bed channel count: 1 channel
  281. Bed channel configuration: LFE
  282. Audio 11
  283. ID: 12
  284. Format: E-AC-3 JOC
  285. Format/Info: Enhanced AC-3 with Joint Object Coding
  286. Commercial name: Dolby Digital Plus with Dolby Atmos
  287. Codec ID: A_EAC3
  288. Duration: 2 h 15 min
  289. Bit rate mode: Constant
  290. Bit rate: 768 kb/s
  291. Channel(s): 6 channels
  292. Channel layout: L R C LFE Ls Rs
  293. Sampling rate: 48.0 kHz
  294. Frame rate: 31.250 FPS (1536 SPF)
  295. Compression mode: Lossy
  296. Stream size: 747 MiB (2%)
  297. Title: Hungarian [Dolby Digital Plus Atmos 5.1]
  298. Language: Hungarian
  299. Service kind: Complete Main
  300. Default: No
  301. Forced: No
  302. Complexity index: 16
  303. Number of dynamic objects: 15
  304. Bed channel count: 1 channel
  305. Bed channel configuration: LFE
  306. Audio 12
  307. ID: 13
  308. Format: E-AC-3 JOC
  309. Format/Info: Enhanced AC-3 with Joint Object Coding
  310. Commercial name: Dolby Digital Plus with Dolby Atmos
  311. Codec ID: A_EAC3
  312. Duration: 2 h 15 min
  313. Bit rate mode: Constant
  314. Bit rate: 768 kb/s
  315. Channel(s): 6 channels
  316. Channel layout: L R C LFE Ls Rs
  317. Sampling rate: 48.0 kHz
  318. Frame rate: 31.250 FPS (1536 SPF)
  319. Compression mode: Lossy
  320. Stream size: 747 MiB (2%)
  321. Title: Indonesian [Dolby Digital Plus Atmos 5.1]
  322. Language: Indonesian
  323. Service kind: Complete Main
  324. Default: No
  325. Forced: No
  326. Complexity index: 16
  327. Number of dynamic objects: 15
  328. Bed channel count: 1 channel
  329. Bed channel configuration: LFE
  330. Audio 13
  331. ID: 14
  332. Format: E-AC-3 JOC
  333. Format/Info: Enhanced AC-3 with Joint Object Coding
  334. Commercial name: Dolby Digital Plus with Dolby Atmos
  335. Codec ID: A_EAC3
  336. Duration: 2 h 15 min
  337. Bit rate mode: Constant
  338. Bit rate: 768 kb/s
  339. Channel(s): 6 channels
  340. Channel layout: L R C LFE Ls Rs
  341. Sampling rate: 48.0 kHz
  342. Frame rate: 31.250 FPS (1536 SPF)
  343. Compression mode: Lossy
  344. Stream size: 747 MiB (2%)
  345. Title: Japanese [Dolby Digital Plus Atmos 5.1]
  346. Language: Japanese
  347. Service kind: Complete Main
  348. Default: No
  349. Forced: No
  350. Complexity index: 16
  351. Number of dynamic objects: 15
  352. Bed channel count: 1 channel
  353. Bed channel configuration: LFE
  354. Audio 14
  355. ID: 15
  356. Format: E-AC-3 JOC
  357. Format/Info: Enhanced AC-3 with Joint Object Coding
  358. Commercial name: Dolby Digital Plus with Dolby Atmos
  359. Codec ID: A_EAC3
  360. Duration: 2 h 15 min
  361. Bit rate mode: Constant
  362. Bit rate: 768 kb/s
  363. Channel(s): 6 channels
  364. Channel layout: L R C LFE Ls Rs
  365. Sampling rate: 48.0 kHz
  366. Frame rate: 31.250 FPS (1536 SPF)
  367. Compression mode: Lossy
  368. Stream size: 747 MiB (2%)
  369. Title: Polish [Dolby Digital Plus Atmos 5.1]
  370. Language: Polish
  371. Service kind: Complete Main
  372. Default: No
  373. Forced: No
  374. Complexity index: 16
  375. Number of dynamic objects: 15
  376. Bed channel count: 1 channel
  377. Bed channel configuration: LFE
  378. Audio 15
  379. ID: 16
  380. Format: E-AC-3 JOC
  381. Format/Info: Enhanced AC-3 with Joint Object Coding
  382. Commercial name: Dolby Digital Plus with Dolby Atmos
  383. Codec ID: A_EAC3
  384. Duration: 2 h 15 min
  385. Bit rate mode: Constant
  386. Bit rate: 768 kb/s
  387. Channel(s): 6 channels
  388. Channel layout: L R C LFE Ls Rs
  389. Sampling rate: 48.0 kHz
  390. Frame rate: 31.250 FPS (1536 SPF)
  391. Compression mode: Lossy
  392. Stream size: 747 MiB (2%)
  393. Title: Tamil [Dolby Digital Plus Atmos 5.1]
  394. Language: Tamil
  395. Service kind: Complete Main
  396. Default: No
  397. Forced: No
  398. Complexity index: 16
  399. Number of dynamic objects: 15
  400. Bed channel count: 1 channel
  401. Bed channel configuration: LFE
  402. Audio 16
  403. ID: 17
  404. Format: E-AC-3 JOC
  405. Format/Info: Enhanced AC-3 with Joint Object Coding
  406. Commercial name: Dolby Digital Plus with Dolby Atmos
  407. Codec ID: A_EAC3
  408. Duration: 2 h 15 min
  409. Bit rate mode: Constant
  410. Bit rate: 768 kb/s
  411. Channel(s): 6 channels
  412. Channel layout: L R C LFE Ls Rs
  413. Sampling rate: 48.0 kHz
  414. Frame rate: 31.250 FPS (1536 SPF)
  415. Compression mode: Lossy
  416. Stream size: 747 MiB (2%)
  417. Title: Telugu [Dolby Digital Plus Atmos 5.1]
  418. Language: Telugu
  419. Service kind: Complete Main
  420. Default: No
  421. Forced: No
  422. Complexity index: 16
  423. Number of dynamic objects: 15
  424. Bed channel count: 1 channel
  425. Bed channel configuration: LFE
  426. Audio 17
  427. ID: 18
  428. Format: E-AC-3 JOC
  429. Format/Info: Enhanced AC-3 with Joint Object Coding
  430. Commercial name: Dolby Digital Plus with Dolby Atmos
  431. Codec ID: A_EAC3
  432. Duration: 2 h 15 min
  433. Bit rate mode: Constant
  434. Bit rate: 768 kb/s
  435. Channel(s): 6 channels
  436. Channel layout: L R C LFE Ls Rs
  437. Sampling rate: 48.0 kHz
  438. Frame rate: 31.250 FPS (1536 SPF)
  439. Compression mode: Lossy
  440. Stream size: 747 MiB (2%)
  441. Title: Thai [Dolby Digital Plus Atmos 5.1]
  442. Language: Thai
  443. Service kind: Complete Main
  444. Default: No
  445. Forced: No
  446. Complexity index: 16
  447. Number of dynamic objects: 15
  448. Bed channel count: 1 channel
  449. Bed channel configuration: LFE
  450. Audio 18
  451. ID: 19
  452. Format: E-AC-3 JOC
  453. Format/Info: Enhanced AC-3 with Joint Object Coding
  454. Commercial name: Dolby Digital Plus with Dolby Atmos
  455. Codec ID: A_EAC3
  456. Duration: 2 h 15 min
  457. Bit rate mode: Constant
  458. Bit rate: 768 kb/s
  459. Channel(s): 6 channels
  460. Channel layout: L R C LFE Ls Rs
  461. Sampling rate: 48.0 kHz
  462. Frame rate: 31.250 FPS (1536 SPF)
  463. Compression mode: Lossy
  464. Stream size: 747 MiB (2%)
  465. Title: Turkish [Dolby Digital Plus Atmos 5.1]
  466. Language: Turkish
  467. Service kind: Complete Main
  468. Default: No
  469. Forced: No
  470. Complexity index: 16
  471. Number of dynamic objects: 15
  472. Bed channel count: 1 channel
  473. Bed channel configuration: LFE
  474. Audio 19
  475. ID: 20
  476. Format: E-AC-3 JOC
  477. Format/Info: Enhanced AC-3 with Joint Object Coding
  478. Commercial name: Dolby Digital Plus with Dolby Atmos
  479. Codec ID: A_EAC3
  480. Duration: 2 h 15 min
  481. Bit rate mode: Constant
  482. Bit rate: 768 kb/s
  483. Channel(s): 6 channels
  484. Channel layout: L R C LFE Ls Rs
  485. Sampling rate: 48.0 kHz
  486. Frame rate: 31.250 FPS (1536 SPF)
  487. Compression mode: Lossy
  488. Stream size: 747 MiB (2%)
  489. Title: Ukrainian [Dolby Digital Plus Atmos 5.1]
  490. Language: Ukrainian
  491. Service kind: Complete Main
  492. Default: No
  493. Forced: No
  494. Complexity index: 16
  495. Number of dynamic objects: 15
  496. Bed channel count: 1 channel
  497. Bed channel configuration: LFE
  498. Text 1
  499. ID: 21
  500. Format: UTF-8
  501. Codec ID: S_TEXT/UTF8
  502. Codec ID/Info: UTF-8 Plain Text
  503. Duration: 2 h 3 min
  504. Bit rate: 42 b/s
  505. Frame rate: 0.157 FPS
  506. Count of elements: 1161
  507. Stream size: 38.1 KiB (0%)
  508. Title: English [Full]
  509. Language: English
  510. Default: No
  511. Forced: No
  512. Text 2
  513. ID: 22
  514. Format: UTF-8
  515. Codec ID: S_TEXT/UTF8
  516. Codec ID/Info: UTF-8 Plain Text
  517. Duration: 2 h 13 min
  518. Bit rate: 48 b/s
  519. Frame rate: 0.196 FPS
  520. Count of elements: 1570
  521. Stream size: 47.8 KiB (0%)
  522. Title: English [SDH]
  523. Language: English
  524. Default: No
  525. Forced: No
  526. Text 3
  527. ID: 23
  528. Format: UTF-8
  529. Codec ID: S_TEXT/UTF8
  530. Codec ID/Info: UTF-8 Plain Text
  531. Duration: 32 min 15 s
  532. Bit rate: 2 b/s
  533. Frame rate: 0.009 FPS
  534. Count of elements: 17
  535. Stream size: 521 Bytes (0%)
  536. Title: English [Forced]
  537. Language: English
  538. Default: Yes
  539. Forced: Yes
  540. Text 4
  541. ID: 24
  542. Format: UTF-8
  543. Codec ID: S_TEXT/UTF8
  544. Codec ID/Info: UTF-8 Plain Text
  545. Duration: 2 h 12 min
  546. Bit rate: 37 b/s
  547. Frame rate: 0.150 FPS
  548. Count of elements: 1192
  549. Stream size: 36.1 KiB (0%)
  550. Title: French (France) [Full]
  551. Language: French (FR)
  552. Default: No
  553. Forced: No
  554. Text 5
  555. ID: 25
  556. Format: UTF-8
  557. Codec ID: S_TEXT/UTF8
  558. Codec ID/Info: UTF-8 Plain Text
  559. Duration: 2 h 1 min
  560. Bit rate: 0 b/s
  561. Frame rate: 0.004 FPS
  562. Count of elements: 28
  563. Stream size: 831 Bytes (0%)
  564. Title: French (France) [Forced]
  565. Language: French (FR)
  566. Default: No
  567. Forced: No
  568. Text 6
  569. ID: 26
  570. Format: UTF-8
  571. Codec ID: S_TEXT/UTF8
  572. Codec ID/Info: UTF-8 Plain Text
  573. Duration: 2 h 12 min
  574. Bit rate: 36 b/s
  575. Frame rate: 0.138 FPS
  576. Count of elements: 1100
  577. Stream size: 35.4 KiB (0%)
  578. Title: German [Full]
  579. Language: German
  580. Default: No
  581. Forced: No
  582. Text 7
  583. ID: 27
  584. Format: UTF-8
  585. Codec ID: S_TEXT/UTF8
  586. Codec ID/Info: UTF-8 Plain Text
  587. Duration: 2 h 1 min
  588. Bit rate: 0 b/s
  589. Frame rate: 0.004 FPS
  590. Count of elements: 26
  591. Stream size: 815 Bytes (0%)
  592. Title: German [Forced]
  593. Language: German
  594. Default: No
  595. Forced: No
  596. Text 8
  597. ID: 28
  598. Format: UTF-8
  599. Codec ID: S_TEXT/UTF8
  600. Codec ID/Info: UTF-8 Plain Text
  601. Duration: 2 h 12 min
  602. Bit rate: 36 b/s
  603. Frame rate: 0.140 FPS
  604. Count of elements: 1113
  605. Stream size: 35.4 KiB (0%)
  606. Title: Italian [Full]
  607. Language: Italian
  608. Default: No
  609. Forced: No
  610. Text 9
  611. ID: 29
  612. Format: UTF-8
  613. Codec ID: S_TEXT/UTF8
  614. Codec ID/Info: UTF-8 Plain Text
  615. Duration: 2 h 1 min
  616. Bit rate: 0 b/s
  617. Frame rate: 0.004 FPS
  618. Count of elements: 26
  619. Stream size: 749 Bytes (0%)
  620. Title: Italian [Forced]
  621. Language: Italian
  622. Default: No
  623. Forced: No
  624. Text 10
  625. ID: 30
  626. Format: UTF-8
  627. Codec ID: S_TEXT/UTF8
  628. Codec ID/Info: UTF-8 Plain Text
  629. Duration: 2 h 12 min
  630. Bit rate: 34 b/s
  631. Frame rate: 0.140 FPS
  632. Count of elements: 1117
  633. Stream size: 33.6 KiB (0%)
  634. Title: Portuguese (Brazil) [Full]
  635. Language: Portuguese (BR)
  636. Default: No
  637. Forced: No
  638. Text 11
  639. ID: 31
  640. Format: UTF-8
  641. Codec ID: S_TEXT/UTF8
  642. Codec ID/Info: UTF-8 Plain Text
  643. Duration: 2 h 1 min
  644. Bit rate: 0 b/s
  645. Frame rate: 0.003 FPS
  646. Count of elements: 25
  647. Stream size: 800 Bytes (0%)
  648. Title: Portuguese (Brazil) [Forced]
  649. Language: Portuguese (BR)
  650. Default: No
  651. Forced: No
  652. Text 12
  653. ID: 32
  654. Format: UTF-8
  655. Codec ID: S_TEXT/UTF8
  656. Codec ID/Info: UTF-8 Plain Text
  657. Duration: 2 h 12 min
  658. Bit rate: 35 b/s
  659. Frame rate: 0.141 FPS
  660. Count of elements: 1127
  661. Stream size: 34.5 KiB (0%)
  662. Title: Spanish (Spain) [Full]
  663. Language: Spanish (ES)
  664. Default: No
  665. Forced: No
  666. Text 13
  667. ID: 33
  668. Format: UTF-8
  669. Codec ID: S_TEXT/UTF8
  670. Codec ID/Info: UTF-8 Plain Text
  671. Duration: 2 h 1 min
  672. Bit rate: 0 b/s
  673. Frame rate: 0.004 FPS
  674. Count of elements: 26
  675. Stream size: 788 Bytes (0%)
  676. Title: Spanish (Spain) [Forced]
  677. Language: Spanish (ES)
  678. Default: No
  679. Forced: No
  680. Text 14
  681. ID: 34
  682. Format: UTF-8
  683. Codec ID: S_TEXT/UTF8
  684. Codec ID/Info: UTF-8 Plain Text
  685. Duration: 2 h 12 min
  686. Bit rate: 36 b/s
  687. Frame rate: 0.144 FPS
  688. Count of elements: 1146
  689. Stream size: 35.4 KiB (0%)
  690. Title: Spanish (Latin America) [Full]
  691. Language: Spanish (Latin America)
  692. Default: No
  693. Forced: No
  694. Text 15
  695. ID: 35
  696. Format: UTF-8
  697. Codec ID: S_TEXT/UTF8
  698. Codec ID/Info: UTF-8 Plain Text
  699. Duration: 2 h 1 min
  700. Bit rate: 0 b/s
  701. Frame rate: 0.004 FPS
  702. Count of elements: 27
  703. Stream size: 803 Bytes (0%)
  704. Title: Spanish (Latin America) [Forced]
  705. Language: Spanish (Latin America)
  706. Default: No
  707. Forced: No
  708. Text 16
  709. ID: 36
  710. Format: UTF-8
  711. Codec ID: S_TEXT/UTF8
  712. Codec ID/Info: UTF-8 Plain Text
  713. Duration: 2 h 12 min
  714. Bit rate: 35 b/s
  715. Frame rate: 0.143 FPS
  716. Count of elements: 1141
  717. Stream size: 34.2 KiB (0%)
  718. Title: Czech [Full]
  719. Language: Czech
  720. Default: No
  721. Forced: No
  722. Text 17
  723. ID: 37
  724. Format: UTF-8
  725. Codec ID: S_TEXT/UTF8
  726. Codec ID/Info: UTF-8 Plain Text
  727. Duration: 2 h 1 min
  728. Bit rate: 0 b/s
  729. Frame rate: 0.004 FPS
  730. Count of elements: 26
  731. Stream size: 784 Bytes (0%)
  732. Title: Czech [Forced]
  733. Language: Czech
  734. Default: No
  735. Forced: No
  736. Text 18
  737. ID: 38
  738. Format: UTF-8
  739. Codec ID: S_TEXT/UTF8
  740. Codec ID/Info: UTF-8 Plain Text
  741. Duration: 2 h 12 min
  742. Bit rate: 35 b/s
  743. Frame rate: 0.143 FPS
  744. Count of elements: 1138
  745. Stream size: 34.8 KiB (0%)
  746. Title: Filipino [Full]
  747. Language: Filipino
  748. Default: No
  749. Forced: No
  750. Text 19
  751. ID: 39
  752. Format: UTF-8
  753. Codec ID: S_TEXT/UTF8
  754. Codec ID/Info: UTF-8 Plain Text
  755. Duration: 1 h 16 min
  756. Bit rate: 1 b/s
  757. Frame rate: 0.005 FPS
  758. Count of elements: 23
  759. Stream size: 720 Bytes (0%)
  760. Title: Filipino [Forced]
  761. Language: Filipino
  762. Default: No
  763. Forced: No
  764. Text 20
  765. ID: 40
  766. Format: UTF-8
  767. Codec ID: S_TEXT/UTF8
  768. Codec ID/Info: UTF-8 Plain Text
  769. Duration: 2 h 12 min
  770. Bit rate: 36 b/s
  771. Frame rate: 0.141 FPS
  772. Count of elements: 1124
  773. Stream size: 35.7 KiB (0%)
  774. Title: Hungarian [Full]
  775. Language: Hungarian
  776. Default: No
  777. Forced: No
  778. Text 21
  779. ID: 41
  780. Format: UTF-8
  781. Codec ID: S_TEXT/UTF8
  782. Codec ID/Info: UTF-8 Plain Text
  783. Duration: 2 h 1 min
  784. Bit rate: 0 b/s
  785. Frame rate: 0.004 FPS
  786. Count of elements: 26
  787. Stream size: 748 Bytes (0%)
  788. Title: Hungarian [Forced]
  789. Language: Hungarian
  790. Default: No
  791. Forced: No
  792. Text 22
  793. ID: 42
  794. Format: UTF-8
  795. Codec ID: S_TEXT/UTF8
  796. Codec ID/Info: UTF-8 Plain Text
  797. Duration: 2 h 12 min
  798. Bit rate: 34 b/s
  799. Frame rate: 0.144 FPS
  800. Count of elements: 1146
  801. Stream size: 33.9 KiB (0%)
  802. Title: Indonesian [Full]
  803. Language: Indonesian
  804. Default: No
  805. Forced: No
  806. Text 23
  807. ID: 43
  808. Format: UTF-8
  809. Codec ID: S_TEXT/UTF8
  810. Codec ID/Info: UTF-8 Plain Text
  811. Duration: 1 h 16 min
  812. Bit rate: 1 b/s
  813. Frame rate: 0.005 FPS
  814. Count of elements: 24
  815. Stream size: 798 Bytes (0%)
  816. Title: Indonesian [Forced]
  817. Language: Indonesian
  818. Default: No
  819. Forced: No
  820. Text 24
  821. ID: 44
  822. Format: UTF-8
  823. Codec ID: S_TEXT/UTF8
  824. Codec ID/Info: UTF-8 Plain Text
  825. Duration: 2 h 12 min
  826. Bit rate: 31 b/s
  827. Frame rate: 0.132 FPS
  828. Count of elements: 1051
  829. Stream size: 30.5 KiB (0%)
  830. Title: Japanese [Full]
  831. Language: Japanese
  832. Default: No
  833. Forced: No
  834. Text 25
  835. ID: 45
  836. Format: UTF-8
  837. Codec ID: S_TEXT/UTF8
  838. Codec ID/Info: UTF-8 Plain Text
  839. Duration: 2 h 1 min
  840. Bit rate: 1 b/s
  841. Frame rate: 0.004 FPS
  842. Count of elements: 28
  843. Stream size: 1.01 KiB (0%)
  844. Title: Japanese [Forced]
  845. Language: Japanese
  846. Default: No
  847. Forced: No
  848. Text 26
  849. ID: 46
  850. Format: UTF-8
  851. Codec ID: S_TEXT/UTF8
  852. Codec ID/Info: UTF-8 Plain Text
  853. Duration: 2 h 12 min
  854. Bit rate: 33 b/s
  855. Frame rate: 0.141 FPS
  856. Count of elements: 1120
  857. Stream size: 32.8 KiB (0%)
  858. Title: Polish [Full]
  859. Language: Polish
  860. Default: No
  861. Forced: No
  862. Text 27
  863. ID: 47
  864. Format: UTF-8
  865. Codec ID: S_TEXT/UTF8
  866. Codec ID/Info: UTF-8 Plain Text
  867. Duration: 2 h 1 min
  868. Bit rate: 0 b/s
  869. Frame rate: 0.003 FPS
  870. Count of elements: 25
  871. Stream size: 696 Bytes (0%)
  872. Title: Polish [Forced]
  873. Language: Polish
  874. Default: No
  875. Forced: No
  876. Text 28
  877. ID: 48
  878. Format: UTF-8
  879. Codec ID: S_TEXT/UTF8
  880. Codec ID/Info: UTF-8 Plain Text
  881. Duration: 2 h 12 min
  882. Bit rate: 95 b/s
  883. Frame rate: 0.145 FPS
  884. Count of elements: 1153
  885. Stream size: 92.9 KiB (0%)
  886. Title: Thai [Full]
  887. Language: Thai
  888. Default: No
  889. Forced: No
  890. Text 29
  891. ID: 49
  892. Format: UTF-8
  893. Codec ID: S_TEXT/UTF8
  894. Codec ID/Info: UTF-8 Plain Text
  895. Duration: 2 h 1 min
  896. Bit rate: 2 b/s
  897. Frame rate: 0.004 FPS
  898. Count of elements: 27
  899. Stream size: 1.89 KiB (0%)
  900. Title: Thai [Forced]
  901. Language: Thai
  902. Default: No
  903. Forced: No
  904. Text 30
  905. ID: 50
  906. Format: UTF-8
  907. Codec ID: S_TEXT/UTF8
  908. Codec ID/Info: UTF-8 Plain Text
  909. Duration: 2 h 12 min
  910. Bit rate: 36 b/s
  911. Frame rate: 0.144 FPS
  912. Count of elements: 1145
  913. Stream size: 35.3 KiB (0%)
  914. Title: Turkish [Full]
  915. Language: Turkish
  916. Default: No
  917. Forced: No
  918. Text 31
  919. ID: 51
  920. Format: UTF-8
  921. Codec ID: S_TEXT/UTF8
  922. Codec ID/Info: UTF-8 Plain Text
  923. Duration: 2 h 1 min
  924. Bit rate: 0 b/s
  925. Frame rate: 0.004 FPS
  926. Count of elements: 26
  927. Stream size: 820 Bytes (0%)
  928. Title: Turkish [Forced]
  929. Language: Turkish
  930. Default: No
  931. Forced: No
  932. Text 32
  933. ID: 52
  934. Format: UTF-8
  935. Codec ID: S_TEXT/UTF8
  936. Codec ID/Info: UTF-8 Plain Text
  937. Duration: 2 h 12 min
  938. Bit rate: 60 b/s
  939. Frame rate: 0.144 FPS
  940. Count of elements: 1148
  941. Stream size: 59.2 KiB (0%)
  942. Title: Ukrainian [Full]
  943. Language: Ukrainian
  944. Default: No
  945. Forced: No
  946. Text 33
  947. ID: 53
  948. Format: UTF-8
  949. Codec ID: S_TEXT/UTF8
  950. Codec ID/Info: UTF-8 Plain Text
  951. Duration: 2 h 1 min
  952. Bit rate: 1 b/s
  953. Frame rate: 0.004 FPS
  954. Count of elements: 26
  955. Stream size: 1.26 KiB (0%)
  956. Title: Ukrainian [Forced]
  957. Language: Ukrainian
  958. Default: No
  959. Forced: No
  960. Text 34
  961. ID: 54
  962. Format: UTF-8
  963. Codec ID: S_TEXT/UTF8
  964. Codec ID/Info: UTF-8 Plain Text
  965. Duration: 2 h 12 min
  966. Bit rate: 64 b/s
  967. Frame rate: 0.145 FPS
  968. Count of elements: 1158
  969. Stream size: 63.1 KiB (0%)
  970. Title: Arabic [Full]
  971. Language: Arabic
  972. Default: No
  973. Forced: No
  974. Text 35
  975. ID: 55
  976. Format: UTF-8
  977. Codec ID: S_TEXT/UTF8
  978. Codec ID/Info: UTF-8 Plain Text
  979. Duration: 2 h 12 min
  980. Bit rate: 36 b/s
  981. Frame rate: 0.142 FPS
  982. Count of elements: 1129
  983. Stream size: 35.1 KiB (0%)
  984. Title: Basque [Full]
  985. Language: Basque
  986. Default: No
  987. Forced: No
  988. Text 36
  989. ID: 56
  990. Format: UTF-8
  991. Codec ID: S_TEXT/UTF8
  992. Codec ID/Info: UTF-8 Plain Text
  993. Duration: 2 h 12 min
  994. Bit rate: 34 b/s
  995. Frame rate: 0.144 FPS
  996. Count of elements: 1150
  997. Stream size: 33.8 KiB (0%)
  998. Title: Catalan [Full]
  999. Language: Catalan
  1000. Default: No
  1001. Forced: No
  1002. Text 37
  1003. ID: 57
  1004. Format: UTF-8
  1005. Codec ID: S_TEXT/UTF8
  1006. Codec ID/Info: UTF-8 Plain Text
  1007. Duration: 2 h 12 min
  1008. Bit rate: 34 b/s
  1009. Frame rate: 0.144 FPS
  1010. Count of elements: 1148
  1011. Stream size: 33.3 KiB (0%)
  1012. Title: Chinese (Simplified) [Full]
  1013. Language: Mandarin (Hans)
  1014. Default: No
  1015. Forced: No
  1016. Text 38
  1017. ID: 58
  1018. Format: UTF-8
  1019. Codec ID: S_TEXT/UTF8
  1020. Codec ID/Info: UTF-8 Plain Text
  1021. Duration: 2 h 12 min
  1022. Bit rate: 32 b/s
  1023. Frame rate: 0.144 FPS
  1024. Count of elements: 1150
  1025. Stream size: 31.8 KiB (0%)
  1026. Title: Chinese (Traditional) [Full]
  1027. Language: Mandarin (Hant)
  1028. Default: No
  1029. Forced: No
  1030. Text 39
  1031. ID: 59
  1032. Format: UTF-8
  1033. Codec ID: S_TEXT/UTF8
  1034. Codec ID/Info: UTF-8 Plain Text
  1035. Duration: 2 h 12 min
  1036. Bit rate: 33 b/s
  1037. Frame rate: 0.143 FPS
  1038. Count of elements: 1141
  1039. Stream size: 33.0 KiB (0%)
  1040. Title: Croatian [Full]
  1041. Language: Croatian
  1042. Default: No
  1043. Forced: No
  1044. Text 40
  1045. ID: 60
  1046. Format: UTF-8
  1047. Codec ID: S_TEXT/UTF8
  1048. Codec ID/Info: UTF-8 Plain Text
  1049. Duration: 2 h 12 min
  1050. Bit rate: 34 b/s
  1051. Frame rate: 0.136 FPS
  1052. Count of elements: 1080
  1053. Stream size: 34.0 KiB (0%)
  1054. Title: Danish [Full]
  1055. Language: Danish
  1056. Default: No
  1057. Forced: No
  1058. Text 41
  1059. ID: 61
  1060. Format: UTF-8
  1061. Codec ID: S_TEXT/UTF8
  1062. Codec ID/Info: UTF-8 Plain Text
  1063. Duration: 2 h 12 min
  1064. Bit rate: 33 b/s
  1065. Frame rate: 0.120 FPS
  1066. Count of elements: 953
  1067. Stream size: 33.0 KiB (0%)
  1068. Title: Dutch [Full]
  1069. Language: Dutch
  1070. Default: No
  1071. Forced: No
  1072. Text 42
  1073. ID: 62
  1074. Format: UTF-8
  1075. Codec ID: S_TEXT/UTF8
  1076. Codec ID/Info: UTF-8 Plain Text
  1077. Duration: 2 h 12 min
  1078. Bit rate: 35 b/s
  1079. Frame rate: 0.123 FPS
  1080. Count of elements: 978
  1081. Stream size: 34.9 KiB (0%)
  1082. Title: Finnish [Full]
  1083. Language: Finnish
  1084. Default: No
  1085. Forced: No
  1086. Text 43
  1087. ID: 63
  1088. Format: UTF-8
  1089. Codec ID: S_TEXT/UTF8
  1090. Codec ID/Info: UTF-8 Plain Text
  1091. Duration: 2 h 12 min
  1092. Bit rate: 34 b/s
  1093. Frame rate: 0.144 FPS
  1094. Count of elements: 1148
  1095. Stream size: 33.8 KiB (0%)
  1096. Title: Galician [Full]
  1097. Language: Galician
  1098. Default: No
  1099. Forced: No
  1100. Text 44
  1101. ID: 64
  1102. Format: UTF-8
  1103. Codec ID: S_TEXT/UTF8
  1104. Codec ID/Info: UTF-8 Plain Text
  1105. Duration: 2 h 12 min
  1106. Bit rate: 62 b/s
  1107. Frame rate: 0.142 FPS
  1108. Count of elements: 1134
  1109. Stream size: 60.7 KiB (0%)
  1110. Title: Greek [Full]
  1111. Language: Greek
  1112. Default: No
  1113. Forced: No
  1114. Text 45
  1115. ID: 65
  1116. Format: UTF-8
  1117. Codec ID: S_TEXT/UTF8
  1118. Codec ID/Info: UTF-8 Plain Text
  1119. Duration: 2 h 12 min
  1120. Bit rate: 59 b/s
  1121. Frame rate: 0.144 FPS
  1122. Count of elements: 1150
  1123. Stream size: 57.9 KiB (0%)
  1124. Title: Hebrew [Full]
  1125. Language: Hebrew
  1126. Default: No
  1127. Forced: No
  1128. Text 46
  1129. ID: 66
  1130. Format: UTF-8
  1131. Codec ID: S_TEXT/UTF8
  1132. Codec ID/Info: UTF-8 Plain Text
  1133. Duration: 2 h 12 min
  1134. Bit rate: 43 b/s
  1135. Frame rate: 0.158 FPS
  1136. Count of elements: 1257
  1137. Stream size: 42.0 KiB (0%)
  1138. Title: Korean [Full]
  1139. Language: Korean
  1140. Default: No
  1141. Forced: No
  1142. Text 47
  1143. ID: 67
  1144. Format: UTF-8
  1145. Codec ID: S_TEXT/UTF8
  1146. Codec ID/Info: UTF-8 Plain Text
  1147. Duration: 2 h 12 min
  1148. Bit rate: 34 b/s
  1149. Frame rate: 0.144 FPS
  1150. Count of elements: 1148
  1151. Stream size: 33.9 KiB (0%)
  1152. Title: Malay [Full]
  1153. Language: Malay
  1154. Default: No
  1155. Forced: No
  1156. Text 48
  1157. ID: 68
  1158. Format: UTF-8
  1159. Codec ID: S_TEXT/UTF8
  1160. Codec ID/Info: UTF-8 Plain Text
  1161. Duration: 2 h 12 min
  1162. Bit rate: 34 b/s
  1163. Frame rate: 0.138 FPS
  1164. Count of elements: 1097
  1165. Stream size: 33.9 KiB (0%)
  1166. Title: Norwegian [Full]
  1167. Language: Norwegian
  1168. Default: No
  1169. Forced: No
  1170. Text 49
  1171. ID: 69
  1172. Format: UTF-8
  1173. Codec ID: S_TEXT/UTF8
  1174. Codec ID/Info: UTF-8 Plain Text
  1175. Duration: 2 h 12 min
  1176. Bit rate: 36 b/s
  1177. Frame rate: 0.144 FPS
  1178. Count of elements: 1151
  1179. Stream size: 35.5 KiB (0%)
  1180. Title: Portuguese (Portugal) [Full]
  1181. Language: Portuguese (PT)
  1182. Default: No
  1183. Forced: No
  1184. Text 50
  1185. ID: 70
  1186. Format: UTF-8
  1187. Codec ID: S_TEXT/UTF8
  1188. Codec ID/Info: UTF-8 Plain Text
  1189. Duration: 2 h 12 min
  1190. Bit rate: 35 b/s
  1191. Frame rate: 0.140 FPS
  1192. Count of elements: 1113
  1193. Stream size: 34.6 KiB (0%)
  1194. Title: Romanian [Full]
  1195. Language: Romanian
  1196. Default: No
  1197. Forced: No
  1198. Text 51
  1199. ID: 71
  1200. Format: UTF-8
  1201. Codec ID: S_TEXT/UTF8
  1202. Codec ID/Info: UTF-8 Plain Text
  1203. Duration: 2 h 12 min
  1204. Bit rate: 59 b/s
  1205. Frame rate: 0.142 FPS
  1206. Count of elements: 1135
  1207. Stream size: 57.6 KiB (0%)
  1208. Title: Russian [Full]
  1209. Language: Russian
  1210. Default: No
  1211. Forced: No
  1212. Text 52
  1213. ID: 72
  1214. Format: UTF-8
  1215. Codec ID: S_TEXT/UTF8
  1216. Codec ID/Info: UTF-8 Plain Text
  1217. Duration: 2 h 12 min
  1218. Bit rate: 36 b/s
  1219. Frame rate: 0.138 FPS
  1220. Count of elements: 1096
  1221. Stream size: 35.2 KiB (0%)
  1222. Title: Swedish [Full]
  1223. Language: Swedish
  1224. Default: No
  1225. Forced: No
  1226. Text 53
  1227. ID: 73
  1228. Format: UTF-8
  1229. Codec ID: S_TEXT/UTF8
  1230. Codec ID/Info: UTF-8 Plain Text
  1231. Duration: 2 h 12 min
  1232. Bit rate: 49 b/s
  1233. Frame rate: 0.144 FPS
  1234. Count of elements: 1146
  1235. Stream size: 48.3 KiB (0%)
  1236. Title: Vietnamese [Full]
  1237. Language: Vietnamese
  1238. Default: No
  1239. Forced: No
复制代码









月球叛军:火之女.Rebel.Moon.Part.One.A.Child.of.Fire.2023.Multi.19.Eng.Fre.Ger.Ita.Por.Spa.2160p.WEBMux.DV.HDR.HEVC.Atmos-SGF 31.90GB

Rebel.Moon.Part.One.A.Child.of.Fire.2023.Multi.19.Eng.Fre.Ger.Ita.Por.Spa.2160p..torrent

40.4 KB, 下载次数: 66, 下载积分: 蓝光币 -2

回复

使用道具 举报

蓝光币
19
发表于 2024-4-25 15:16:27 | 显示全部楼层
楼主发贴辛苦了,谢谢楼主分享!我觉得蓝光电影网是注册对了!
回复

使用道具 举报

蓝光币
0
发表于 2024-4-25 18:21:57 | 显示全部楼层

感谢楼主的无私分享!要想蓝光电影网好 就靠你我他
回复

使用道具 举报

蓝光币
3
发表于 2024-4-25 19:22:37 | 显示全部楼层
楼主发贴辛苦了,谢谢楼主分享!我觉得蓝光电影网是注册对了!
回复

使用道具 举报

蓝光币
486
发表于 2024-5-11 21:35:06 | 显示全部楼层

这东西我收了!谢谢楼主!蓝光电影网真好!
回复

使用道具 举报

懒得打字嘛,点击右侧快捷回复 【右侧内容,后台自定义】
您需要登录后才可以回帖 登录 | 立即加入

本版积分规则

Archiver| |网站地图

Copyright © 2024 Comsenz Inc. Powered by 蓝光电影网

本站内容由用户自主分享和转载自互联网,转载目的在于传递更多信息,并不代表本网赞同其观点和对其真实性负责。

如有侵权、违反国家法律政策行为,请联系我们,我们会第一时间及时清除和处理!

举报反馈邮箱:4k1080.com@gmail.com

快速回复 返回顶部 返回列表