找回密码

查看: 229|回复: 0

机智医生生活 [第2季][12集全][外挂中字].Hospital.Playlist.S02.2021.2160p.TVING.WEB-DL.H265.AAC-TAG 127.57GB

[复制链接]
蓝光币
2027
发表于 2024-5-23 21:55:05 | 显示全部楼层 |阅读模式
机智医生生活 [第2季][12集全][外挂中字].Hospital.Playlist.S02.2021.2160p.TVING.WEB-DL.H265.AAC-TAG 127.57GB-1.jpg
◎译  名 机智医生生活 第二季 / 机智的医生生活第二季 / Wise Doctor Life 2 / Hospital Playlist 2 / Episode #2.1
◎片  名 슬기로운 의사생활 시즌2
◎年  代 2021
◎产  地 韩国
◎类  别 剧情
◎语  言 韩语
◎上映日期 2021-06-17(韩国)
◎IMDb评星  ★★★★★★★★★☆
◎IMDb评分  8.9/10 from 97 users
◎IMDb链接  https://www.imdb.com/title/tt13758486/
◎豆瓣评星 ★★★★★
◎豆瓣评分 9.5/10 from 167,854 users
◎豆瓣链接 https://movie.douban.com/subject/35049544/
◎单集片长 90分钟
◎集  数 12
◎导  演 申元浩 / Won-ho Shin
◎演  员 曹政奭 / Jeong-seok Cho
      柳演锡 / Yeon-Seok Yoo
      郑敬淏 / Kyeong-ho Jeong
      金大明 / Dae-Myung Kim
      田美都 / Mi-do Jeon
      河允庆 / Yoon-kyeong Ha
      金秀京 / Kim Su Kyung
      洪宇禛 / Hong Woo-jin
      金圭白 / Kim Kyu Baek
      崔英俊 / Young-jun Choi | 饰 奉光铉
      全光镇 / Kwang-jin Jeon | 饰 钟世赫
      柳延锡 / Ryu Yeon-Seok | 饰 研讨员 Ep.4
      李春声 / Lee Bom Sori | 饰 郑雅妍
      奇昭侑 / Gi So Yoo
      金知星 / Jisung Kim | 饰 韩承珠
      全惠妍 / Jeon Hye-yeon | 饰 肝胰腺外科门诊护士
      崔知妍 / Choi Ji Yeon | 饰 医生 Ep.10
      金松菲 / Kim Sol Bi
      李道惠 / Lee Do Hye
      林志浩 / Ji-ho Im | 饰 延才闵 Ep.9
      吴恩书 / Oh Eun Seo | 饰 Ba Da Ep. 4
      尹道健 / Yoon Do Gun | 饰 练习生
      尹相贞 / Yun Sang Jeong
      朴知妍 / Park Ji-yeon | 饰 杨硕亨前妻
      李奎炯 / Kyu-hyung Lee
      申铉彬 / Hyun-bin Shin | 饰 张冬季
      安恩真 / Eunjin Ahn | 饰 秋敏荷
      延诗宇 / Yeon Si Woo
      刘在明 / Jae-myung Yoo
      丁文晟 / Moon-sung Jung | 饰 凃材学
      金范洙 / Kim Bum Soo
      金江珉 / Kang-min Kim | 饰 임창민
      安乐琳 / Ahn Tae Rin | 饰 Ha Yul Ep.3
      赵仁 / Jo In | 饰 高危险产妇 Ep. 6
      金赫拉 / Kim Hieora | 饰 Ep. 7
      朱宝菲 / Bo-Bi Joo | 饰 金多英
◎编  剧 李祐汀 / Woo-Jeong Lee
◎音  乐 李茂珍 / Lee Mu-jin

◎简  介 

  在医院里,每位病人及每件事都相当重要,身为医生同时也是普通人的五人帮,将在此面临人生的起升降落。

  1. General
  2. Unique ID : 336643744701345095701764427361813821669 (0xFD433A12E9DBB36CBD24C3EEE8B478E5)
  3. Complete name : Hospital.Playlist.S02E08.2160p.TVING.WEB-DL.H265.AAC-TAG.mkv
  4. Format : Matroska
  5. Format version : Version 4
  6. File size : 11.9 GiB
  7. Duration : 1 h 51 min
  8. Overall bit rate : 15.3 Mb/s
  9. Encoded date : UTC 2023-08-08 13:10:45
  10. Writing application : mkvmerge v52.0.0 ('Secret For The Mad') 64-bit
  11. Writing library : libebml v1.4.2 + libmatroska v1.6.2

  12. Video
  13. ID : 1
  14. Format : HEVC
  15. Format/Info : High Efficiency Video Coding
  16. Format profile : Main [email]10@L5.1[/email]@Main
  17. Codec ID : V_MPEGH/ISO/HEVC
  18. Duration : 1 h 51 min
  19. Bit rate : 15.0 Mb/s
  20. Width : 3 840 pixels
  21. Height : 2 160 pixels
  22. Display aspect ratio : 16:9
  23. Frame rate mode : Constant
  24. Frame rate : 29.970 (30000/1001) FPS
  25. Color space : YUV
  26. Chroma subsampling : 4:2:0
  27. Bit depth : 10 bits
  28. Bits/(Pixel*Frame) : 0.060
  29. Stream size : 11.7 GiB (98%)
  30. Default : Yes
  31. Forced : No
  32. Color range : Limited
  33. Color primaries : BT.709
  34. Transfer characteristics : BT.709
  35. Matrix coefficients : BT.709

  36. Audio
  37. ID : 2
  38. Format : AAC LC
  39. Format/Info : Advanced Audio Codec Low Complexity
  40. Codec ID : A_AAC-2
  41. Duration : 1 h 51 min
  42. Bit rate : 256 kb/s
  43. Channel(s) : 2 channels
  44. Channel layout : L R
  45. Sampling rate : 48.0 kHz
  46. Frame rate : 46.875 FPS (1024 SPF)
  47. Compression mode : Lossy
  48. Delay relative to video : -44 ms
  49. Stream size : 204 MiB (2%)
  50. Language : Korean
  51. Default : Yes
  52. Forced : No

  53. Text
  54. ID : 3
  55. Format : UTF-8
  56. Codec ID : S_TEXT/UTF8
  57. Codec ID/Info : UTF-8 Plain Text
  58. Duration : 1 h 51 min
  59. Bit rate : 87 b/s
  60. Count of elements : 2341
  61. Stream size : 71.0 KiB (0%)
  62. Language : Korean
  63. Default : Yes
  64. Forced : No
复制代码
机智医生生活 [第2季][12集全][外挂中字].Hospital.Playlist.S02.2021.2160p.TVING.WEB-DL.H265.AAC-TAG 127.57GB-2.png
机智医生生活 [第2季][12集全][外挂中字].Hospital.Playlist.S02.2021.2160p.TVING.WEB-DL.H265.AAC-TAG 127.57GB-3.png
机智医生生活 [第2季][12集全][外挂中字].Hospital.Playlist.S02.2021.2160p.TVING.WEB-DL.H265.AAC-TAG 127.57GB-4.png
机智医生生活 [第2季][12集全][外挂中字].Hospital.Playlist.S02.2021.2160p.TVING.WEB-DL.H265.AAC-TAG 127.57GB-5.png






新种保举请利用qBittorrent,utorrent,transmission等标准BT软件下载!以获得最快速度。请大师下载完成后不要封闭下载软件 进献出自己的上传带宽 人报酬我 我为大家!










回复

使用道具 举报

懒得打字嘛,点击右侧快捷回复 【右侧内容,后台自定义】
您需要登录后才可以回帖 登录 | 立即加入

本版积分规则

Archiver| |网站地图

Copyright © 2024 Comsenz Inc. Powered by 蓝光电影网

本站内容由用户自主分享和转载自互联网,转载目的在于传递更多信息,并不代表本网赞同其观点和对其真实性负责。

如有侵权、违反国家法律政策行为,请联系我们,我们会第一时间及时清除和处理!

举报反馈邮箱:4k1080.com@gmail.com

快速回复 返回顶部 返回列表