找回密码

查看: 326|回复: 1

上海滩 [全25集][国粤双语中字].Shanghai.Beach.1980.1080p.WEB-DL.H265.2Audio.AAC-TAG 15.81GB

[复制链接]
蓝光币
2027
发表于 2024-5-24 15:42:45 | 显示全部楼层 |阅读模式
上海滩 [全25集][国粤双语中字].Shanghai.Beach.1980.1080p.WEB-DL.H265.2Audio.AAC-TAG 15.81GB-1.jpg
上海滩 [全25集][国粤双语中字].Shanghai.Beach.1980.1080p.WEB-DL.H265.2Audio.AAC-TAG 15.81GB-2.png

◎译  名 上海滩/Shanghai Beach
◎片  名 上海灘
◎年  代 1980
◎产  地 中国香港
◎类  别 剧情/恋爱
◎语  言 粤语
◎上映日期 1980-03-10(中国香港)
◎IMDb评分  8.1/10 from 260 users
◎IMDb链接  https://www.imdb.com/title/tt0086298/
◎豆瓣评分 9.1/10 from 25211 users
◎豆瓣链接 https://douban.com/subject/1299645/
◎集  数 25
◎片  长 45分钟
◎导  演 招振强 Chun Keung Chiu
◎编  剧 陈翘英 Kiu-Ying Chan / 陈丽华 Vera Lai-Wah Chan
◎主  演 周润发 Yun-Fat Chow
      赵雅芝 Angie Chiu
      吕良伟 Ray Lui
      刘丹 Tan Lau
      汤镇业 Ken Tong
      林建明 Meg Lam
      廖启智 Kai Chi Liu
      景黛音 Mitra King Toi-Yam
      陈立身 Maria Chan
      冯国 Kwok Fung
      欧阳佩珊 Puishan Auyeung
      秦煌 Wong Chun
      黄新 Sun Wong
      骆应钧 Ying Kwan Lok
      陈安莹 On-Ying Chan
      郭锋 Fung Kwok
      陈狄克 Ti-ko Chen
      林伟图 Wai-Tiu Lam
      于小华 Siu Wah Yuk
      林文伟 Wen-Wei Lin
      李国麟 Kwok-Lun Lee
      曾楚霖 Choh-Lam Tsang
      邝佐辉 Tony Kwong
      庄文清 Chong Man-Ching
      梁鸿华 Tony Leung Hung-Wah
      焦雄 Hung Chiu
      卢大伟 David Lo
      骆恭 Kung Lok
      鲁振顺 Chun-shun Lo
      周秀兰 Elaine Chow Sau-Laan
      陈百祥 Pak-cheung Chan
      刘雅丽 Chic Lau

◎标  签 周润发 | 典范 | 赵雅芝 | TVB | 上海滩 | 港剧 | 电视剧 | 香港

◎简  介

  
  上海滩上龙争虎斗,仇杀漫天。大门生许文强(周润发 饰)履历过失利的门生活动后,单身来到上海,他与小贩丁力(吕良伟 饰)成为至好,并在同学方艳云的帮助下,混入黑帮,并凭仗自己的勇谋成为帮气派目。上海法租界富翁冯敬尧看中许文强的才华,想招其至门下,被文强婉言回绝。许文强偶然救了冯敬尧之女冯程程(赵雅芝 饰),赢得其倾慕。在一次帮派胶葛中,许文强与丁力穷途末路,投靠了冯敬尧。程程对文强紧追不舍,终究感动了他,两人计划成婚。此时,许文强发现了冯敬尧勾结日本人卖国,几经思考,他挑选了变节冯敬尧杀死日本人。为了躲避冯敬尧的追杀,许文强逃到香港,遇上成叔一家,决心过安静日子。程程追到香港,引来了冯敬尧的爪牙,成叔一家被害。许文强返回上海,起头复仇计划。程程求文强分开和她一路远走高飞,但被拒绝,失望的她嫁给一片痴心的丁力。许文强在丁力的帮助下成功复仇后,他决心去找远走法国的程程,却葬身在日本人的枪林弹雨当中。

  1. General
  2. Unique ID : 333242529928902400062358641001725456888 (0xFAB42D3D15EE253032C26D262FF471F8)
  3. Complete name : 上海滩.Shanghai.Beach.1980.E01.1080p.WEB-DL.H265.2Audio.AAC-TAG.mkv
  4. Format : Matroska
  5. Format version : Version 4
  6. File size : 575 MiB
  7. Duration : 36 min 52 s
  8. Overall bit rate : 2 181 kb/s
  9. Encoded date : UTC 2021-01-25 02:53:10
  10. Writing application : mkvmerge v44.0.0 ('Domino') 64-bit
  11. Writing library : libebml v1.3.10 + libmatroska v1.5.2

  12. Video
  13. ID : 1
  14. Format : HEVC
  15. Format/Info : High Efficiency Video Coding
  16. Format profile : Main@L4@Main
  17. Codec ID : V_MPEGH/ISO/HEVC
  18. Duration : 36 min 52 s
  19. Bit rate : 1 927 kb/s
  20. Width : 1 920 pixels
  21. Height : 1 080 pixels
  22. Display aspect ratio : 16:9
  23. Frame rate mode : Constant
  24. Frame rate : 25.000 FPS
  25. Color space : YUV
  26. Chroma subsampling : 4:2:0
  27. Bit depth : 8 bits
  28. Bits/(Pixel*Frame) : 0.037
  29. Stream size : 508 MiB (88%)
  30. Default : Yes
  31. Forced : No

  32. Audio #1
  33. ID : 2
  34. Format : AAC LC
  35. Format/Info : Advanced Audio Codec Low Complexity
  36. Codec ID : A_AAC-2
  37. Duration : 36 min 52 s
  38. Bit rate : 126 kb/s
  39. Channel(s) : 2 channels
  40. Channel layout : L R
  41. Sampling rate : 44.1 kHz
  42. Frame rate : 43.066 FPS (1024 SPF)
  43. Compression mode : Lossy
  44. Stream size : 33.1 MiB (6%)
  45. Title : 普通话
  46. Language : Chinese
  47. Default : Yes
  48. Forced : No

  49. Audio #2
  50. ID : 3
  51. Format : AAC LC
  52. Format/Info : Advanced Audio Codec Low Complexity
  53. Codec ID : A_AAC-2
  54. Duration : 36 min 52 s
  55. Bit rate : 126 kb/s
  56. Channel(s) : 2 channels
  57. Channel layout : L R
  58. Sampling rate : 44.1 kHz
  59. Frame rate : 43.066 FPS (1024 SPF)
  60. Compression mode : Lossy
  61. Stream size : 33.1 MiB (6%)
  62. Title : 粤语
  63. Language : Chinese
  64. Default : No
  65. Forced : No
复制代码








新种保举请利用qBittorrent,utorrent,transmission等标准BT软件下载!以获得最快速度。请大师下载完成后不要封闭下载软件 进献出自己的上传带宽 人报酬我 我为大家!








回复

使用道具 举报

蓝光币
145
发表于 2024-5-29 22:41:33 来自手机 | 显示全部楼层
感谢楼主分享
回复

使用道具 举报

懒得打字嘛,点击右侧快捷回复 【右侧内容,后台自定义】
您需要登录后才可以回帖 登录 | 立即加入

本版积分规则

Archiver| |网站地图

Copyright © 2024 Comsenz Inc. Powered by 蓝光电影网

本站内容由用户自主分享和转载自互联网,转载目的在于传递更多信息,并不代表本网赞同其观点和对其真实性负责。

如有侵权、违反国家法律政策行为,请联系我们,我们会第一时间及时清除和处理!

举报反馈邮箱:4k1080.com@gmail.com

快速回复 返回顶部 返回列表