找回密码

蓝光电影网

查看: 2169|回复: 2

[歌舞] 托斯卡 Tosca.2001.ITALIAN.1080p.BluRay.x264.DTS-HD.MA.5.1-SWTYBLZ 10.29GB

[复制链接]
蓝光币
623
发表于 2018-4-15 09:57:01 | 显示全部楼层 |阅读模式
192018o9q461069f898o40.jpg
◎译  名 托斯卡
◎片  名 Tosca
◎年  代 2001
◎产  地 意大利/法国/英国/德国
◎类  别 歌舞/剧情
◎语  言 意大利语
◎上映日期 2001-09-09
◎IMDb评分  7.4/10 from 351 users
◎IMDb链接  http://www.imdb.com/title/tt0240122/
◎豆瓣评分 8.7/10 from 56 users
◎豆瓣链接 https://movie.douban.com/subject/1308182/
◎片  长 126 分钟
◎导  演 伯努瓦·雅克 Beno?t Jacquot
◎主  演 安琪拉·葛姬 Angela Gheorghiu
      阿兰尼亚 Roberto Alagna
      Ruggero Raimondi

◎简  介

  普契尼的《托斯卡》可所以個廉價的煽情戲,一部糅合著愛情、政治與慾望的浅显劇-假如沒有他那扣民气弦的華麗樂章,與撕裂的神經末梢融和分歧的音符的話。把這樣一部膾炙生齿的歌劇搬上銀幕,也幾乎註定要令導演焦頭爛額。但是奇蹟出現了,班諾瓦.積高的《托斯卡》應是十多年來少數歌劇電影使人滿意的一部。積高以三種途徑(以華麗的攝影拍攝全劇的戲肉,十六毫米的黑白胶卷拍攝錄音過程,及以錄像俯瞰歷史現場)來閱讀普契尼的傑作,不单叫人一新线人,原劇的迫力更絲绝不減。原籍羅馬尼亞的女低音安琪拉.葛姬演繹的托斯卡,更是一次顛峰表演。
  Jacquot transposes Giacomo Puccini's famous opera to film in this stunningly filmed, sung and performed production featuring two of today's hottest opera stars. The films starts with black-and-white footage of the recording studio. He then brings the action forward on the sets, but makes frequent cuts to the studio. This avoids the sense of having filmed a staged production, and establishes an air of non-reality. Jacquot then adds a further visual dimension to the film by filming dazzling sequences of gardens and the night sky in Italy using a video camera. The two singers are also a couple in real life, a fact which adds emotional depth to their personas.
  Source: 26th HKIFF (2002)


  1. Video
  2. ID                                       : 1
  3. Format                                   : AVC
  4. Format/Info                              : Advanced Video Codec
  5. Format profile                           : [email protected]
  6. Format settings                          : CABAC / 5 Ref Frames
  7. Format settings, CABAC                   : Yes
  8. Format settings, ReFrames                : 5 frames
  9. Codec ID                                 : V_MPEG4/ISO/AVC
  10. Duration                                 : 1 h 59 min
  11. Bit rate                                 : 8 215 kb/s
  12. Width                                    : 1 920 pixels
  13. Height                                   : 1 038 pixels
  14. Display aspect ratio                     : 1.85:1
  15. Frame rate mode                          : Constant
  16. Frame rate                               : 25.000 FPS
  17. Color space                              : YUV
  18. Chroma subsampling                       : 4:2:0
  19. Bit depth                                : 8 bits
  20. Scan type                                : Progressive
  21. Bits/(Pixel*Frame)                       : 0.165
  22. Stream size                              : 6.87GB (67%)
  23. Title                                    : Tosca.2001.ITALIAN.1080p.BluRay.x264.DTS-HD.MA.5.1-SWTYBLZ
  24. Writing library                          : x264 core 148 r2795M aaa9aa8
  25. Encoding settings                        : cabac=1 / ref=5 / deblock=1:0:0 / analyse=0x3:0x133 / me=umh / subme=10 / psy=1 / psy_rd=1.00:0.00 / mixed_ref=1 / me_range=24 / chroma_me=1 / trellis=2 / 8x8dct=1 / cqm=0 / deadzone=21,11 / fast_pskip=1 / chroma_qp_offset=-2 / threads=24 / lookahead_threads=4 / sliced_threads=0 / nr=0 / decimate=1 / interlaced=0 / bluray_compat=0 / constrained_intra=0 / bframes=8 / b_pyramid=2 / b_adapt=2 / b_bias=0 / direct=3 / weightb=1 / open_gop=0 / weightp=2 / keyint=240 / keyint_min=24 / scenecut=40 / intra_refresh=0 / rc_lookahead=60 / rc=crf / mbtree=1 / crf=19.0 / qcomp=0.60 / qpmin=0 / qpmax=69 / qpstep=4 / ip_ratio=1.40 / aq=1:1.00
  26. Default                                  : Yes
  27. Forced                                   : No

  28. Audio
  29. ID                                       : 2
  30. Format                                   : DTS
  31. Format/Info                              : Digital Theater Systems
  32. Format profile                           : MA / Core
  33. Codec ID                                 : A_DTS
  34. Duration                                 : 1 h 59 min
  35. Bit rate mode                            : Variable / Constant
  36. Bit rate                                 : 4 041 kb/s / 1 509 kb/s
  37. Channel(s)                               : 6 channels
  38. Channel positions                        : Front: L C R, Side: L R, LFE
  39. Sampling rate                            : 48.0 kHz
  40. Frame rate                               : 93.750 FPS (512 SPF)
  41. Bit depth                                : 24 bits
  42. Compression mode                         : Lossless / Lossy
  43. Stream size                              : 3.38GB (33%)
  44. Title                                    : Tosca.2001.ITALIAN.1080p.BluRay.x264.DTS-HD.MA.5.1-SWTYBLZ
  45. Language                                 : Italian
  46. Default                                  : Yes
  47. Forced                                   : No

  48. Text #1
  49. ID                                       : 3
  50. Format                                   : UTF-8
  51. Codec ID                                 : S_TEXT/UTF8
  52. Codec ID/Info                            : UTF-8 Plain Text
  53. Duration                                 : 1 h 53 min
  54. Bit rate                                 : 29 b/s
  55. Count of elements                        : 907
  56. Stream size                              : 24.4 KiB (0%)
  57. Title                                    : English-SRT
  58. Language                                 : English
  59. Default                                  : Yes
  60. Forced                                   : No

  61. Text #2
  62. ID                                       : 4
  63. Format                                   : PGS
  64. Muxing mode                              : zlib
  65. Codec ID                                 : S_HDMV/PGS
  66. Codec ID/Info                            : Picture based subtitle format used on BDs/HD-DVDs
  67. Duration                                 : 1 h 53 min
  68. Bit rate                                 : 17.2 kb/s
  69. Count of elements                        : 1814
  70. Stream size                              : 14.0 MiB (0%)
  71. Title                                    : English-PGS
  72. Language                                 : English
  73. Default                                  : No
  74. Forced                                   : No

  75. Text #3
  76. ID                                       : 5
  77. Format                                   : PGS
  78. Muxing mode                              : zlib
  79. Codec ID                                 : S_HDMV/PGS
  80. Codec ID/Info                            : Picture based subtitle format used on BDs/HD-DVDs
  81. Duration                                 : 1 h 53 min
  82. Bit rate                                 : 15.3 kb/s
  83. Count of elements                        : 1824
  84. Stream size                              : 12.4 MiB (0%)
  85. Title                                    : Italian-PGS
  86. Language                                 : Italian
  87. Default                                  : No
  88. Forced                                   : No

  89. Text #4
  90. ID                                       : 6
  91. Format                                   : PGS
  92. Muxing mode                              : zlib
  93. Codec ID                                 : S_HDMV/PGS
  94. Codec ID/Info                            : Picture based subtitle format used on BDs/HD-DVDs
  95. Duration                                 : 1 h 53 min
  96. Bit rate                                 : 18.7 kb/s
  97. Count of elements                        : 1814
  98. Stream size                              : 15.2 MiB (0%)
  99. Title                                    : German-PGS
  100. Language                                 : German
  101. Default                                  : No
  102. Forced                                   : No

  103. Text #5
  104. ID                                       : 7
  105. Format                                   : PGS
  106. Muxing mode                              : zlib
  107. Codec ID                                 : S_HDMV/PGS
  108. Codec ID/Info                            : Picture based subtitle format used on BDs/HD-DVDs
  109. Duration                                 : 1 h 53 min
  110. Bit rate                                 : 17.4 kb/s
  111. Count of elements                        : 1814
  112. Stream size                              : 14.2 MiB (0%)
  113. Title                                    : French-PGS
  114. Language                                 : French
  115. Default                                  : No
  116. Forced                                   : No

  117. Text #6
  118. ID                                       : 8
  119. Format                                   : PGS
  120. Muxing mode                              : zlib
  121. Codec ID                                 : S_HDMV/PGS
  122. Codec ID/Info                            : Picture based subtitle format used on BDs/HD-DVDs
  123. Duration                                 : 1 h 53 min
  124. Bit rate                                 : 16.8 kb/s
  125. Count of elements                        : 1814
  126. Stream size                              : 13.7 MiB (0%)
  127. Title                                    : Spanish-PGS
  128. Language                                 : Spanish
  129. Default                                  : No
  130. Forced                                   : No

  131. Text #7
  132. ID                                       : 9
  133. Format                                   : PGS
  134. Muxing mode                              : zlib
  135. Codec ID                                 : S_HDMV/PGS
  136. Codec ID/Info                            : Picture based subtitle format used on BDs/HD-DVDs
  137. Duration                                 : 1 h 53 min
  138. Bit rate                                 : 17.3 kb/s
  139. Count of elements                        : 1814
  140. Stream size                              : 14.1 MiB (0%)
  141. Title                                    : Korean-PGS
  142. Language                                 : Korean
  143. Default                                  : No
  144. Forced                                   : No

  145. Text #8
  146. ID                                       : 10
  147. Format                                   : PGS
  148. Muxing mode                              : zlib
  149. Codec ID                                 : S_HDMV/PGS
  150. Codec ID/Info                            : Picture based subtitle format used on BDs/HD-DVDs
  151. Duration                                 : 1 h 53 min
  152. Bit rate                                 : 17.1 kb/s
  153. Count of elements                        : 1822
  154. Stream size                              : 13.9 MiB (0%)
  155. Title                                    : Japanese-PGS
  156. Language                                 : Japanese
  157. Default                                  : No
  158. Forced                                   : No

  159. Menu
  160. 00:00:00.000                             : en:Chapter 1
  161. 00:00:31.000                             : en:Chapter 2
  162. 00:02:47.720                             : en:Chapter 3
  163. 00:05:04.000                             : en:Chapter 4
  164. 00:06:11.000                             : en:Chapter 5
  165. 00:10:02.720                             : en:Chapter 6
  166. 00:11:47.000                             : en:Chapter 7
  167. 00:13:44.000                             : en:Chapter 8
  168. 00:14:43.000                             : en:Chapter 9
  169. 00:17:15.000                             : en:Chapter 10
  170. 00:19:05.000                             : en:Chapter 11
  171. 00:20:46.000                             : en:Chapter 12
  172. 00:24:44.000                             : en:Chapter 13
  173. 00:28:17.280                             : en:Chapter 14
  174. 00:29:58.400                             : en:Chapter 15
  175. 00:33:34.000                             : en:Chapter 16
  176. 00:36:44.520                             : en:Chapter 17
  177. 00:38:48.000                             : en:Chapter 18
  178. 00:40:55.000                             : en:Chapter 19
  179. 00:45:27.000                             : en:Chapter 20
  180. 00:46:53.000                             : en:Chapter 21
  181. 00:48:43.000                             : en:Chapter 22
  182. 00:49:58.000                             : en:Chapter 23
  183. 00:51:07.000                             : en:Chapter 24
  184. 00:53:33.600                             : en:Chapter 25
  185. 00:55:22.000                             : en:Chapter 26
  186. 01:00:39.000                             : en:Chapter 27
  187. 01:04:12.080                             : en:Chapter 28
  188. 01:05:42.000                             : en:Chapter 29
  189. 01:06:59.000                             : en:Chapter 30
  190. 01:08:24.000                             : en:Chapter 31
  191. 01:12:58.000                             : en:Chapter 32
  192. 01:16:28.000                             : en:Chapter 33
  193. 01:20:09.000                             : en:Chapter 34
  194. 01:22:20.000                             : en:Chapter 35
  195. 01:27:30.000                             : en:Chapter 36
  196. 01:29:17.000                             : en:Chapter 37
  197. 01:30:47.200                             : en:Chapter 38
  198. 01:33:20.000                             : en:Chapter 39
  199. 01:35:07.000                             : en:Chapter 40
  200. 01:36:49.000                             : en:Chapter 41
  201. 01:37:57.000                             : en:Chapter 42
  202. 01:41:05.720                             : en:Chapter 43
  203. 01:43:40.000                             : en:Chapter 44
  204. 01:45:20.000                             : en:Chapter 45
  205. 01:49:03.000                             : en:Chapter 46
  206. 01:51:09.000                             : en:Chapter 47
  207. 01:51:49.000                             : en:Chapter 48
  208. 01:54:04.720                             : en:Chapter 49
  209. 01:55:23.000                             : en:Chapter 50



  210. Notes: Encoded from 4k bluray.

复制代码
复制代码
192019vsi9qqccqqe4yyq9.jpg 192019d6q22q2k2vtmrioq.jpg 192019s2fpkpqllkww2l26.jpg







回复

使用道具 举报

蓝光币
1240
发表于 2018-4-15 21:14:34 | 显示全部楼层
楼主发片辛苦了,万分感谢,好人一生平安!沙发先收下坐下了
回复 支持 反对

使用道具 举报

蓝光币
130
发表于 2018-4-15 22:15:43 | 显示全部楼层
意大利歌剧咏叹调,音画结合
回复 支持 反对

使用道具 举报

懒得打字嘛,点击右侧快捷回复 【右侧内容,后台自定义】
您需要登录后才可以回帖 登录 | 立即加入

本版积分规则

Archiver|小黑屋| 蓝光电影网 |网站地图

Copyright © 2021 Comsenz Inc. Powered by 蓝光电影网

蓝光电影网

本站内容由用户自主分享和转载自互联网,转载目的在于传递更多信息,并不代表本网赞同其观点和对其真实性负责。

如有侵权、违反国家法律政策行为,请联系我们,我们会第一时间及时清除和处理!

举报反馈邮箱:[email protected]

快速回复 返回顶部 返回列表