找回密码

蓝光电影网

查看: 223|回复: 0

[冒险] 小野蛮人 Little.Savages.2016.1080p.WEB-DL.DD5.1.H264-PfXCPI 3.78GB

[复制链接]
蓝光币
426
发表于 2020-1-23 14:35:42 | 显示全部楼层 |阅读模式
小野生番 Little.Savages.2016.1080p.WEB-DL.DD5.1.H264-PfXCPI 3.78GB-1.png

译  名 小野生番
片  名 Little Savages
年  代 2016
产  地 美国
类  别 家庭 / 冒险
语  言 英语
上映日期 2016-02-02(美国)
IMDb评分  5.2/10 from 234 users
IMDb链接  https://www.imdb.com/title/tt3007524
豆瓣评分 0/10 from 0 users
豆瓣链接 https://movie.douban.com/subject/26593202/
片  长 95分钟
导  演 Paul Tomborello
编  剧 Paul Tomborello / L.J. Johnson
主  演 凯瑟琳·麦克纳马拉 Katherine McNamara
       杰米·肯尼迪 Jamie Kennedy
       莱特·艾琳·贝克尔 Leigh Allyn Baker
       亚当·希克斯 Adam Hicks
       肯顿·迪蒂 Kenton Duty
       Aubrey K. Miller
       Leah Bateman
       Aedin Mincks
       Buddy Handleson
       Noah Lomax
       Stuart Stone
       Terri Minton
       Connor Del Rio
       Austin Mincks
       Emma Shudde


标  签 美国 | 无高清 | 2016

简  介  

  Visiting the charming lake town of Culver| a boy genius and his sister race against bullies to find a treasure hidden by an eccentric philanthropist.
  1. Video
  2. ID                                       : 1
  3. Format                                   : AVC
  4. Format/Info                              : Advanced Video Codec
  5. Format profile                           : [email protected]
  6. Format settings                          : CABAC / 4 Ref Frames
  7. Format settings, CABAC                   : Yes
  8. Format settings, Reference frames        : 4 frames
  9. Codec ID                                 : V_MPEG4/ISO/AVC
  10. Duration                                 : 1 h 37 min
  11. Bit rate                                 : 5 153 kb/s
  12. Width                                    : 1 920 pixels
  13. Height                                   : 1 080 pixels
  14. Display aspect ratio                     : 16:9
  15. Frame rate mode                          : Constant
  16. Frame rate                               : 23.976 FPS
  17. Color space                              : YUV
  18. Chroma subsampling                       : 4:2:0
  19. Bit depth                                : 8 bits
  20. Scan type                                : Progressive
  21. Bits/(Pixel*Frame)                       : 0.104
  22. Stream size                              : 3.52 GiB (93%)
  23. Language                                 : English
  24. Default                                  : Yes
  25. Forced                                   : No
  26. Color range                              : Limited
  27. Color primaries                          : BT.709
  28. Transfer characteristics                 : BT.709
  29. Matrix coefficients                      : BT.709

  30. Audio
  31. ID                                       : 2
  32. Format                                   : AC-3
  33. Format/Info                              : Audio Coding 3
  34. Commercial name                          : Dolby Digital
  35. Codec ID                                 : A_AC3
  36. Duration                                 : 1 h 37 min
  37. Bit rate mode                            : Constant
  38. Bit rate                                 : 384 kb/s
  39. Channel(s)                               : 6 channels
  40. Channel layout                           : L R C LFE Ls Rs
  41. Sampling rate                            : 48.0 kHz
  42. Frame rate                               : 31.250 FPS (1536 SPF)
  43. Bit depth                                : 16 bits
  44. Compression mode                         : Lossy
  45. Stream size                              : 268 MiB (7%)
  46. Language                                 : English
  47. Service kind                             : Complete Main
  48. Default                                  : Yes
  49. Forced                                   : No

  50. Menu
  51. 00:00:00.000                             : en:1
  52. 00:11:25.435                             : en:2
  53. 00:21:40.882                             : en:3
  54. 00:30:03.843                             : en:4
  55. 00:43:17.803                             : en:5
  56. 00:53:50.477                             : en:6
  57. 01:03:43.027                             : en:7
  58. 01:12:29.136                             : en:8
  59. 01:20:50.678                             : en:9
  60. 01:34:51.393                             : en:10
复制代码

小野生番 Little.Savages.2016.1080p.WEB-DL.DD5.1.H264-PfXCPI 3.78GB-2.png 小野生番 Little.Savages.2016.1080p.WEB-DL.DD5.1.H264-PfXCPI 3.78GB-3.png 小野生番 Little.Savages.2016.1080p.WEB-DL.DD5.1.H264-PfXCPI 3.78GB-1.png






回复

使用道具 举报

懒得打字嘛,点击右侧快捷回复 【右侧内容,后台自定义】
您需要登录后才可以回帖 登录 | 立即加入

本版积分规则

Archiver|小黑屋| 蓝光电影网 |网站地图

Copyright © 2021 Comsenz Inc. Powered by 蓝光电影网

蓝光电影网

本站内容由用户自主分享和转载自互联网,转载目的在于传递更多信息,并不代表本网赞同其观点和对其真实性负责。

如有侵权、违反国家法律政策行为,请联系我们,我们会第一时间及时清除和处理!

举报反馈邮箱:[email protected]

快速回复 返回顶部 返回列表