找回密码

蓝光电影网

查看: 530|回复: 0

[剧情] 风流艳妇 The.Scandalous.Lady.W.2015.1080p.AMZN.WEBRip.DDP2.0.x264-NTb 6.17GB

[复制链接]
蓝光币
511
发表于 2020-4-29 21:55:47 | 显示全部楼层 |阅读模式
风骚艳妇 The.Scandalous.Lady.W.2015.1080p.AMZN.WEBRip.DDP2.0.x264-NTb 6.17GB-1.png

译  名 风骚艳妇 / The Woman in Red / 伤风败俗的W夫人 / 沃斯利夫人的情事 / 红衣女人
片  名 The Scandalous Lady W
年  代 2015
产  地 英国
类  别 剧情 / 历史
语  言 英语
上映日期 2015-08-17(英国)
IMDb评分  6.5/10 from 2350 users
IMDb链接  https://www.imdb.com/title/tt4184252
豆瓣评分 6.8/10 from 3761 users
豆瓣链接 https://movie.douban.com/subject/26268587/
片  长 90分钟
导  演 谢雷·福克森 Sheree Folkson
编  剧 David Eldridge / Hallie Rubenhold
主  演 娜塔莉·多默尔 Natalie Dormer
       阿奈林·巴纳德 Aneurin Barnard
       肖恩·埃文斯 Shaun Evans
       大卫·卡尔德 David Calder
       克雷格·帕金森 Craig Parkinson
       奥利佛 克里斯 Oliver Chris
       彼得·苏利文 Peter Sullivan
       杰西卡·古宁 Jessica Gunning
       Elizabeth Rider
       Richard McCabe
       威尔·基恩 Will Keen
       Tom Edden
       Michael Bott
       Robert Morgan
       Alex Beckett


标  签 英国 | 列传 | 女权 | 历史 | 英国电影 | BBC | 英剧 | 2015

简  介  

  《风骚艳妇》改编自实在发生在1782年的一场法庭案件,触及到通奸、八卦、窃看等那时的热门事务。娜塔莉·多默饰演Lady Seymour Worsley,一个因汗漫业绩震动18世纪英国的女人,她总共有27个情夫,并与其中一个私奔,更惊奇的是她的丈夫,不但默许这些汉子,甚至喜好从锁眼中窃看欢好;这样一个惊世骇俗的女人,背后又有怎样的故事,我们只获得剧中去探访 。
  1. Video
  2. ID                                       : 1
  3. Format                                   : AVC
  4. Format/Info                              : Advanced Video Codec
  5. Format profile                           : [email protected]
  6. Format settings                          : CABAC / 4 Ref Frames
  7. Format settings, CABAC                   : Yes
  8. Format settings, Reference frames        : 4 frames
  9. Format settings, GOP                     : M=4, N=50
  10. Codec ID                                 : V_MPEG4/ISO/AVC
  11. Duration                                 : 1 h 27 min
  12. Bit rate mode                            : Constant
  13. Bit rate                                 : 10 000 kb/s
  14. Width                                    : 1 920 pixels
  15. Height                                   : 1 080 pixels
  16. Display aspect ratio                     : 16:9
  17. Frame rate mode                          : Constant
  18. Frame rate                               : 25.000 FPS
  19. Standard                                 : PAL
  20. Color space                              : YUV
  21. Chroma subsampling                       : 4:2:0
  22. Bit depth                                : 8 bits
  23. Scan type                                : Progressive
  24. Bits/(Pixel*Frame)                       : 0.193
  25. Stream size                              : 6.03 GiB (98%)
  26. Language                                 : English
  27. Default                                  : Yes
  28. Forced                                   : No
  29. Color range                              : Limited
  30. Color primaries                          : BT.709
  31. Transfer characteristics                 : BT.709
  32. Matrix coefficients                      : BT.709

  33. Audio
  34. ID                                       : 2
  35. Format                                   : E-AC-3
  36. Format/Info                              : Enhanced AC-3
  37. Commercial name                          : Dolby Digital Plus
  38. Codec ID                                 : A_EAC3
  39. Duration                                 : 1 h 27 min
  40. Bit rate mode                            : Constant
  41. Bit rate                                 : 224 kb/s
  42. Channel(s)                               : 2 channels
  43. Channel layout                           : L R
  44. Sampling rate                            : 48.0 kHz
  45. Frame rate                               : 31.250 FPS (1536 SPF)
  46. Compression mode                         : Lossy
  47. Stream size                              : 140 MiB (2%)
  48. Service kind                             : Complete Main
  49. Default                                  : Yes
  50. Forced                                   : No
复制代码

风骚艳妇 The.Scandalous.Lady.W.2015.1080p.AMZN.WEBRip.DDP2.0.x264-NTb 6.17GB-2.png 风骚艳妇 The.Scandalous.Lady.W.2015.1080p.AMZN.WEBRip.DDP2.0.x264-NTb 6.17GB-3.png 风骚艳妇 The.Scandalous.Lady.W.2015.1080p.AMZN.WEBRip.DDP2.0.x264-NTb 6.17GB-4.png







回复

使用道具 举报

懒得打字嘛,点击右侧快捷回复 【右侧内容,后台自定义】
您需要登录后才可以回帖 登录 | 立即加入

本版积分规则

Archiver|小黑屋| 蓝光电影网 |网站地图

Copyright © 2021 Comsenz Inc. Powered by 蓝光电影网

蓝光电影网

本站内容由用户自主分享和转载自互联网,转载目的在于传递更多信息,并不代表本网赞同其观点和对其真实性负责。

如有侵权、违反国家法律政策行为,请联系我们,我们会第一时间及时清除和处理!

举报反馈邮箱:[email protected]

快速回复 返回顶部 返回列表