找回密码

蓝光电影网

查看: 767|回复: 0

[纪录] 园丁 The.Gardener.2012.1080p.BluRay.x264-GHOULS 6.56GB

[复制链接]
蓝光币
623
发表于 2018-9-12 10:36:00 | 显示全部楼层 |阅读模式

园丁 The.Gardener.2012.1080p.BluRay.x264-GHOULS 6.56GB-1.jpg
◎译  名 园丁
◎片  名 ??????
◎年  代 2012
◎产  地 以色列/伊朗/英国
◎类  别 记载片
◎语  言 英语/波斯语/托克皮辛语
◎上映日期 2012-10-08(韩国釜山国际电影节)
◎豆瓣评分 /10 from 0 users
◎豆瓣链接 https://movie.douban.com/subject/19899629/
◎片  长 87分钟
◎导  演 莫森·玛克玛尔巴夫 Mohsen Makhmalbaf

◎简  介

  An Iranian filmmaker and his son travel to Israel to investigate a religion that originated a hundred and seventy years ago. Youth from all over come to Haifa to join this religion, and those who serve in the gardens that surround the holy places develop peace-loving attitudes through their interactions with nature.
  The filmmaker shares with his son the idea that if the Iranian people had adopted a peaceful religion, Iran would not be preparing a nuclear attack on Israel, but the son believes that all religions tend to bring about destruction. As a result of these arguments, father and son separate from one another and pursue their own paths.

  1. Video
  2. ID                                       : 1
  3. Format                                   : AVC
  4. Format/Info                              : Advanced Video Codec
  5. Format profile                           : [url=/cdn-cgi/l/email-protection][email protected][/url]
  6. Format settings                          : CABAC / 4 Ref Frames
  7. Format settings, CABAC                   : Yes
  8. Format settings, RefFrames               : 4 frames
  9. Codec ID                                 : V_MPEG4/ISO/AVC
  10. Duration                                 : 1 h 25 min
  11. Bit rate                                 : 10.3 Mb/s
  12. Width                                    : 1 920 pixels
  13. Height                                   : 1 080 pixels
  14. Display aspect ratio                     : 16:9
  15. Frame rate mode                          : Constant
  16. Frame rate                               : 23.976 (24000/1001) FPS
  17. Color space                              : YUV
  18. Chroma subsampling                       : 4:2:0
  19. Bit depth                                : 8 bits
  20. Scan type                                : Progressive
  21. Bits/(Pixel*Frame)                       : 0.207
  22. Stream size                              : 6.17 GiB (94%)
  23. Writing library                          : x264 core 155 r2901 7d0ff22
  24. Encoding settings                        : cabac=1 / ref=4 / deblock=1:-3:-3 / analyse=0x3:0x133 / me=umh / subme=8 / psy=1 / psy_rd=1.00:0.00 / mixed_ref=1 / me_range=16 / chroma_me=1 / trellis=1 / 8x8dct=1 / cqm=0 / deadzone=21,11 / fast_pskip=0 / chroma_qp_offset=-2 / threads=24 / lookahead_threads=4 / sliced_threads=0 / nr=0 / decimate=1 / interlaced=0 / bluray_compat=0 / constrained_intra=0 / bframes=3 / b_pyramid=2 / b_adapt=1 / b_bias=0 / direct=3 / weightb=1 / open_gop=0 / weightp=2 / keyint=250 / keyint_min=23 / scenecut=40 / intra_refresh=0 / rc_lookahead=50 / rc=2pass / mbtree=1 / bitrate=10288 / ratetol=1.0 / qcomp=0.60 / qpmin=0 / qpmax=69 / qpstep=4 / cplxblur=20.0 / qblur=0.5 / vbv_maxrate=62500 / vbv_bufsize=78125 / nal_hrd=none / filler=0 / ip_ratio=1.40 / aq=1:1.00
  25. Default                                  : Yes
  26. Forced                                   : No

  27. Audio
  28. ID                                       : 2
  29. Format                                   : AC-3
  30. Format/Info                              : Audio Coding 3
  31. Format settings, Endianness              : Big
  32. Codec ID                                 : A_AC3
  33. Duration                                 : 1 h 25 min
  34. Bit rate mode                            : Constant
  35. Bit rate                                 : 640 kb/s
  36. Channel(s)                               : 2 channels
  37. Channel positions                        : Front: L R
  38. Sampling rate                            : 48.0 kHz
  39. Frame rate                               : 31.250 FPS (1536 SPF)
  40. Bit depth                                : 16 bits
  41. Compression mode                         : Lossy
  42. Stream size                              : 393 MiB (6%)
  43. Language                                 : Persian
  44. Service kind                             : Complete Main
  45. Default                                  : Yes
  46. Forced                                   : No

  47. Text
  48. ID                                       : 3
  49. Format                                   : UTF-8
  50. Codec ID                                 : S_TEXT/UTF8
  51. Codec ID/Info                            : UTF-8 Plain Text
  52. Duration                                 : 1 h 21 min
  53. Bit rate                                 : 16 b/s
  54. Count of elements                        : 263
  55. Stream size                              : 10.1 KiB (0%)
  56. Language                                 : English
  57. Default                                  : Yes
  58. Forced                                   : No

  59. Menu
  60. 00:00:00.000                             : en:00:00:00.000
  61. 00:08:03.233                             : en:00:08:03.233
  62. 00:13:47.952                             : en:00:13:47.952
  63. 00:21:33.584                             : en:00:21:33.584
  64. 00:27:56.842                             : en:00:27:56.842
  65. 00:36:17.425                             : en:00:36:17.425
  66. 00:42:59.035                             : en:00:42:59.035
  67. 00:49:59.288                             : en:00:49:59.288
  68. 00:58:15.909                             : en:00:58:15.909
  69. 01:04:39.084                             : en:01:04:39.084
  70. 01:09:46.724                             : en:01:09:46.724
  71. 01:18:10.519                             : en:01:18:10.519
复制代码

复制代码

园丁 The.Gardener.2012.1080p.BluRay.x264-GHOULS 6.56GB-2.jpg






回复

使用道具 举报

懒得打字嘛,点击右侧快捷回复 【右侧内容,后台自定义】
您需要登录后才可以回帖 登录 | 立即加入

本版积分规则

Archiver|小黑屋| 蓝光电影网 |网站地图

Copyright © 2021 Comsenz Inc. Powered by 蓝光电影网

蓝光电影网

本站内容由用户自主分享和转载自互联网,转载目的在于传递更多信息,并不代表本网赞同其观点和对其真实性负责。

如有侵权、违反国家法律政策行为,请联系我们,我们会第一时间及时清除和处理!

举报反馈邮箱:[email protected]

快速回复 返回顶部 返回列表