找回密码

蓝光电影网

查看: 1164|回复: 1

[剧情] 朝政/公共事务 Affairs.of.State.2018.1080p.BluRay.x264-NODLABS 6.58GB

[复制链接]
蓝光币
623
发表于 2018-9-12 11:31:11 | 显示全部楼层 |阅读模式

朝政/公同事务 Affairs.of.State.2018.1080p.BluRay.x264-NODLABS 6.58GB-1.jpg
◎译  名 朝政/公同事务/国家大事
◎片  名 Public Affairs
◎年  代 2018
◎产  地 美国
◎类  别 剧情
◎语  言 英语
◎上映日期 2018-06-15(美国部分上映)
◎豆瓣评分 /10 from 0 users
◎豆瓣链接 https://movie.douban.com/subject/26808825/
◎片  长 97分钟
◎导  演 埃里克·布罗斯 Eric Bross
◎主  演 索拉·伯奇 Thora Birch
      米密·罗杰斯 Mimi Rogers
      艾德里安·格尼尔 Adrian Grenier
      大卫·詹姆斯·艾略特 David James Elliott
      菲·格兰特 Faye Grant
      格蕾丝·维多利亚·考克斯 Grace Victoria Cox
      布兰登·哈代斯蒂 Brandon Hardesty
      Betsy Landin
      David Corenswet
      Bonnie Johnson
      Morgan Cryer
      Eugenia Gonzales
      Victoria Harris
      Cherri Reams
      Bernadette Sayre

◎简  介

  Eric Bross directs Public Affairs from a screenplay by Tom Cudworth about a campaign aide who must fight for his life after he sleeps with the wife of a presidential candidate.

  1. Video
  2. ID                                       : 1
  3. Format                                   : AVC
  4. Format/Info                              : Advanced Video Codec
  5. Format profile                           : [url=/cdn-cgi/l/email-protection][email protected][/url]
  6. Format settings                          : CABAC / 4 Ref Frames
  7. Format settings, CABAC                   : Yes
  8. Format settings, RefFrames               : 4 frames
  9. Codec ID                                 : V_MPEG4/ISO/AVC
  10. Duration                                 : 1 h 37 min
  11. Bit rate                                 : 8 123 kb/s
  12. Width                                    : 1 920 pixels
  13. Height                                   : 1 080 pixels
  14. Display aspect ratio                     : 16:9
  15. Frame rate mode                          : Constant
  16. Frame rate                               : 23.976 (24000/1001) FPS
  17. Color space                              : YUV
  18. Chroma subsampling                       : 4:2:0
  19. Bit depth                                : 8 bits
  20. Scan type                                : Progressive
  21. Bits/(Pixel*Frame)                       : 0.163
  22. Stream size                              : 5.40 GiB (82%)
  23. Writing library                          : x264 core 157 r2932 303c484
  24. Encoding settings                        : cabac=1 / ref=4 / deblock=1:-3:-3 / analyse=0x3:0x113 / me=umh / subme=8 / psy=1 / psy_rd=1.10:0.00 / mixed_ref=1 / me_range=32 / chroma_me=1 / trellis=2 / 8x8dct=1 / cqm=0 / deadzone=21,11 / fast_pskip=1 / chroma_qp_offset=-2 / threads=24 / lookahead_threads=4 / sliced_threads=0 / nr=0 / decimate=1 / interlaced=0 / bluray_compat=0 / constrained_intra=0 / bframes=3 / b_pyramid=2 / b_adapt=2 / b_bias=0 / direct=3 / weightb=1 / open_gop=0 / weightp=2 / keyint=240 / keyint_min=24 / scenecut=40 / intra_refresh=0 / rc_lookahead=50 / rc=2pass / mbtree=1 / bitrate=8123 / ratetol=1.0 / qcomp=0.60 / qpmin=0 / qpmax=69 / qpstep=4 / cplxblur=20.0 / qblur=0.5 / ip_ratio=1.40 / aq=3:0.75
  25. Default                                  : Yes
  26. Forced                                   : No
  27. Statistics Tags Issue                    : no_variable_data 1970-01-01 00:00:00 / no_variable_data 2010-02-22 21:41:29
  28. FromStats_BitRate                        : 8120325
  29. FromStats_Duration                       : 01:37:27.884000000
  30. FromStats_FrameCount                     : 140209
  31. FromStats_StreamSize                     : 5935840191

  32. Audio
  33. ID                                       : 2
  34. Format                                   : DTS
  35. Format/Info                              : Digital Theater Systems
  36. Mode                                     : 16
  37. Format settings, Endianness              : Big
  38. Codec ID                                 : A_DTS
  39. Duration                                 : 1 h 37 min
  40. Bit rate mode                            : Constant
  41. Bit rate                                 : 1 509 kb/s
  42. Channel(s)                               : 6 channels
  43. Channel positions                        : Front: L C R, Side: L R, LFE
  44. Sampling rate                            : 48.0 kHz
  45. Frame rate                               : 93.750 FPS (512 SPF)
  46. Bit depth                                : 24 bits
  47. Compression mode                         : Lossy
  48. Stream size                              : 1.03 GiB (16%)
  49. Language                                 : English
  50. Default                                  : Yes
  51. Forced                                   : No
  52. Statistics Tags Issue                    : no_variable_data 1970-01-01 00:00:00 / no_variable_data 2010-02-22 21:41:29
  53. FromStats_BitRate                        : 1508999
  54. FromStats_Duration                       : 01:37:27.894000000
  55. FromStats_FrameCount                     : 548240
  56. FromStats_StreamSize                     : 1103058880

  57. Text #1
  58. ID                                       : 3
  59. Format                                   : UTF-8
  60. Codec ID                                 : S_TEXT/UTF8
  61. Codec ID/Info                            : UTF-8 Plain Text
  62. Language                                 : English
  63. Default                                  : No
  64. Forced                                   : No
  65. Statistics Tags Issue                    : no_variable_data 1970-01-01 00:00:00 / no_variable_data 2010-02-22 21:41:29
  66. FromStats_BitRate                        : 59
  67. FromStats_Duration                       : 01:30:55.033000000
  68. FromStats_FrameCount                     : 1252
  69. FromStats_StreamSize                     : 40682

  70. Text #2
  71. ID                                       : 4
  72. Format                                   : UTF-8
  73. Codec ID                                 : S_TEXT/UTF8
  74. Codec ID/Info                            : UTF-8 Plain Text
  75. Title                                    : SDH
  76. Language                                 : English
  77. Default                                  : No
  78. Forced                                   : No
  79. Statistics Tags Issue                    : no_variable_data 1970-01-01 00:00:00 / no_variable_data 2010-02-22 21:41:29
  80. FromStats_BitRate                        : 62
  81. FromStats_Duration                       : 01:31:53.633000000
  82. FromStats_FrameCount                     : 1293
  83. FromStats_StreamSize                     : 42732

  84. Menu
  85. 00:00:00.000                             : en:00:00:00.000
  86. 00:05:55.939                             : en:00:05:55.939
  87. 00:13:06.411                             : en:00:13:06.411
  88. 00:17:40.685                             : en:00:17:40.685
  89. 00:25:45.627                             : en:00:25:45.627
  90. 00:30:23.405                             : en:00:30:23.405
  91. 00:38:30.558                             : en:00:38:30.558
  92. 00:42:20.288                             : en:00:42:20.288
  93. 00:48:21.982                             : en:00:48:21.982
  94. 00:54:42.196                             : en:00:54:42.196
  95. 00:59:08.086                             : en:00:59:08.086
  96. 01:06:30.570                             : en:01:06:30.570
  97. 01:13:12.013                             : en:01:13:12.013
  98. 01:19:36.271                             : en:01:19:36.271
  99. 01:24:00.661                             : en:01:24:00.661
  100. 01:30:42.479                             : en:01:30:42.479
复制代码

复制代码

朝政/公同事务 Affairs.of.State.2018.1080p.BluRay.x264-NODLABS 6.58GB-2.jpg






回复

使用道具 举报

懒得打字嘛,点击右侧快捷回复 【右侧内容,后台自定义】
您需要登录后才可以回帖 登录 | 立即加入

本版积分规则

Archiver|小黑屋| 蓝光电影网 |网站地图

Copyright © 2021 Comsenz Inc. Powered by 蓝光电影网

蓝光电影网

本站内容由用户自主分享和转载自互联网,转载目的在于传递更多信息,并不代表本网赞同其观点和对其真实性负责。

如有侵权、违反国家法律政策行为,请联系我们,我们会第一时间及时清除和处理!

举报反馈邮箱:[email protected]

快速回复 返回顶部 返回列表