找回密码

蓝光电影网

查看: 21|回复: 0

[剧情] 格洛丽亚在路上 The.Glorias.2020.1080p.AMZN.WEBRip.DDP5.1.x264-NTG 9.39GB

[复制链接]
蓝光币
515
发表于 2021-8-20 01:16:34 | 显示全部楼层 |阅读模式


◎译  名 格洛丽亚在路上/My Life on the Road/The Glorias: A Life on the Road/我的人生门路/我的生活在路上/我的行进人生/格洛丽亚
◎片  名 The Glorias
◎年  代 2020
◎产  地 美国
◎类  别 剧情 / 列传 / 历史
◎语  言 英语
◎上映日期 2020-01-26(圣丹斯电影节) / 2020-09-30(美国)
◎IMDb链接  https://www.imdb.com/title/tt7435316/
◎豆瓣评分 /10 from 0 users
◎豆瓣链接 https://movie.douban.com/subject/27156541/
◎片  长 139分钟
◎导  演 朱丽·泰莫 Julie Taymor
◎编  剧 朱丽·泰莫 Julie Taymor / 格洛丽亚·斯泰纳姆 Gloria Steinem
◎主  演 朱丽安·摩尔 Julianne Moore
       艾丽西亚·维坎德 Alicia Vikander
       加奈儿·梦奈 Janelle Monáe
       贝特·米德勒 Bette Midler
       蒂莫西·赫顿 Timothy Hutton
       露露·威尔逊 Lulu Wilson
       摩西·布林斯·普兰提 Moses Brings Plenty
       洛莱妮·图桑特 Lorraine Toussaint
       赖恩·基拉·阿姆斯特朗 Ryan Kiera Armstrong
       大卫·莫拉蒂 David Moretti
       伊内徳·格兰汉姆 Enid Graham
       维克多·斯勒扎克 Victor Slezak
       汤姆·诺维茨基 Tom Nowicki
       尼古拉·瓦尔伯特 Joan McMurtrey
       玛德赫·杰佛里 Madhur Jaffrey
       迈克尔·洛瑞 Michael Lowry
       Kimiko Gelman
       林恩·阿什 Lynne Ashe
       查尔斯·格林 Charles Green
       杰伊·胡古雷 Jay Huguley
       安杰拉·雷卢西奥 Angela Relucio
       凯莉·戴维斯 Kelley Davis
       阿里亚当娜·约瑟夫 Ariadne Joseph
       艾喜丽·D·梅利特 Ashley D. Merritt
       斯凯拉·丹尼 Skylar Denney
◎标  签 女性 | 列传 | 朱丽安·摩尔 | 美国 | 历史 | 2020 | 剧情 | 美国电影
◎简  介


  按照斯泰纳姆同名自传改编,将聚焦她若何从一位普通记者成为美国女权活动的先驱。
  1. Video
  2. ID                                       : 1
  3. Format                                   : AVC
  4. Format/Info                              : Advanced Video Codec
  5. Format profile                           : [email protected]
  6. Format settings                          : CABAC / 4 Ref Frames
  7. Format settings, CABAC                   : Yes
  8. Format settings, Reference frames        : 4 frames
  9. Codec ID                                 : V_MPEG4/ISO/AVC
  10. Duration                                 : 2 h 27 min
  11. Bit rate mode                            : Constant
  12. Bit rate                                 : 8 497 kb/s
  13. Nominal bit rate                         : 10 000 kb/s
  14. Width                                    : 1 920 pixels
  15. Height                                   : 1 040 pixels
  16. Display aspect ratio                     : 1.85:1
  17. Frame rate mode                          : Constant
  18. Frame rate                               : 23.976 (24000/1001/189150) FPS
  19. Color space                              : YUV
  20. Chroma subsampling                       : 4:2:0
  21. Bit depth                                : 8 bits
  22. Scan type                                : Progressive
  23. Bits/(Pixel*Frame)                       : 0.177
  24. Stream size                              : 8.73 GiB (93%)
  25. Default                                  : Yes
  26. Forced                                   : No
  27. Color range                              : Limited
  28. Color primaries                          : BT.709
  29. Transfer characteristics                 : BT.709
  30. Matrix coefficients                      : BT.709
  31. Audio
  32. ID                                       : 2
  33. Format                                   : E-AC-3
  34. Format/Info                              : Enhanced AC-3
  35. Commercial name                          : Dolby Digital Plus
  36. Codec ID                                 : A_EAC3
  37. Duration                                 : 2 h 27 min
  38. Bit rate mode                            : Constant
  39. Bit rate                                 : 640 kb/s
  40. Channel(s)                               : 6 channels
  41. Channel layout                           : L R C LFE Ls Rs
  42. Sampling rate                            : 48.0 kHz
  43. Frame rate                               : 31.250 FPS (1536 SPF)
  44. Compression mode                         : Lossy
  45. Stream size                              : 673 MiB (7%)
  46. Language                                 : English
  47. Service kind                             : Complete Main
  48. Default                                  : Yes
  49. Forced                                   : No
  50. Text
  51. ID                                       : 3
  52. Format                                   : UTF-8
  53. Codec ID                                 : S_TEXT/UTF8
  54. Codec ID/Info                            : UTF-8 Plain Text
  55. Duration                                 : 2 h 25 min
  56. Bit rate                                 : 70 b/s
  57. Count of elements                        : 2306
  58. Stream size                              : 75.5 KiB (0%)
  59. Title                                    : SDH
  60. Language                                 : English
  61. Default                                  : No
  62. Forced                                   : No
复制代码





                                       
                                       

                                       
                                       
                                       




回复

使用道具 举报

懒得打字嘛,点击右侧快捷回复 【右侧内容,后台自定义】
您需要登录后才可以回帖 登录 | 立即加入

本版积分规则

Archiver|小黑屋| 蓝光电影网 |网站地图

Copyright © 2021 Comsenz Inc. Powered by 蓝光电影网

蓝光电影网

本站内容由用户自主分享和转载自互联网,转载目的在于传递更多信息,并不代表本网赞同其观点和对其真实性负责。

如有侵权、违反国家法律政策行为,请联系我们,我们会第一时间及时清除和处理!

举报反馈邮箱:[email protected]

快速回复 返回顶部 返回列表