找回密码

蓝光电影网

查看: 25|回复: 0

[剧情] 纸袋头 Baghead.2008.1080p.WEBRip.x264-RARBG 1.54GB

[复制链接]
蓝光币
515
发表于 2021-8-20 01:18:51 | 显示全部楼层 |阅读模式


◎译  名 纸袋头
◎片  名 Baghead
◎年  代 2008
◎产  地 美国
◎类  别 剧情 / 笑剧 / 恋爱 / 可骇
◎语  言 英语
◎上映日期 2008-01-22
◎IMDb评分  6/10 from 4261 users
◎IMDb链接  https://www.imdb.com/title/tt0923600/
◎豆瓣评分 6.0/10 from 183 users
◎豆瓣链接 https://movie.douban.com/subject/3006320/
◎片  长 84 分钟
◎导  演 杰伊·杜普拉斯 Jay Duplass / 马克·杜普拉斯 Mark Duplass
◎编  剧 杰伊·杜普拉斯 Jay Duplass / 马克·杜普拉斯 Mark Duplass
◎主  演 罗斯·帕特里奇 Ross Partridge
       史蒂夫·齐西斯 Steve Zissis
       格蕾塔·葛韦格 Greta Gerwig
       丹·埃格尔斯顿 Dan Eggleston
       Vincent James Prendergast
       Spencer Greenwood
       Anthony Cristo
       珍妮弗·拉弗勒 Jennifer Lafleur
       Elise Muller
       大卫·泽尔纳 David Zellner
◎标  签 美国 | 我看过的电影 | 自力 | 美国电影 | 我看过的英语电影 | 纸袋头 | 笑剧 | 我的标签
◎简  介


  杜普拉斯兄弟在拍摄电影《帕妃椅》时代,一群摄制组成员无聊时提出一个题目:你能想到的让你惊慌的工作是什么?有人立即回答:一个头上戴着袋子的人盯着你的窗口。对于这一说法,有的人赞成,但有的人不以为然,以为这很荒诞,大概很滑稽,但一点都不会引发惊慌。因而,《纸袋头》随之诞生,试图捉住那种“头上戴袋子”的荒诞感受,建造出一部滑稽、实在、心爱的电影,固然也许——仅仅也许,有一点点的恐惧。
  1. Video
  2. ID                                       : 1
  3. Format                                   : AVC
  4. Format/Info                              : Advanced Video Codec
  5. Format profile                           : [email protected]
  6. Format settings                          : CABAC / 4 Ref Frames
  7. Format settings, CABAC                   : Yes
  8. Format settings, Reference frames        : 4 frames
  9. Codec ID                                 : avc1
  10. Codec ID/Info                            : Advanced Video Coding
  11. Duration                                 : 1 h 20 min
  12. Bit rate                                 : 2 500 kb/s
  13. Width                                    : 1 920 pixels
  14. Height                                   : 1 080 pixels
  15. Display aspect ratio                     : 16:9
  16. Frame rate mode                          : Constant
  17. Frame rate                               : 23.976 (23976/1000/189150) FPS
  18. Color space                              : YUV
  19. Chroma subsampling                       : 4:2:0
  20. Bit depth                                : 8 bits
  21. Scan type                                : Progressive
  22. Bits/(Pixel*Frame)                       : 0.050
  23. Stream size                              : 1.41 GiB (92%)
  24. Writing library                          : x264 core 152 r2851M ba24899
  25. Encoding settings                        : cabac=1 / ref=4 / deblock=1:-1:-1 / analyse=0x3:0x113 / me=umh / subme=9 / psy=1 / psy_rd=1.00:0.15 / mixed_ref=1 / me_range=24 / chroma_me=1 / trellis=2 / 8x8dct=1 / cqm=0 / deadzone=21,11 / fast_pskip=1 / chroma_qp_offset=-3 / threads=16 / lookahead_threads=4 / sliced_threads=0 / nr=0 / decimate=1 / interlaced=0 / bluray_compat=0 / constrained_intra=0 / bframes=3 / b_pyramid=2 / b_adapt=2 / b_bias=0 / direct=3 / weightb=1 / open_gop=0 / weightp=2 / keyint=250 / keyint_min=25 / scenecut=40 / intra_refresh=0 / rc_lookahead=50 / rc=2pass / mbtree=1 / bitrate=2500 / ratetol=1.0 / qcomp=0.60 / qpmin=0 / qpmax=69 / qpstep=4 / cplxblur=20.0 / qblur=0.5 / vbv_maxrate=31250 / vbv_bufsize=31250 / nal_hrd=none / filler=0 / ip_ratio=1.40 / aq=3:1.00
  26. Encoded date                             : UTC 2020-10-02 11:52:18
  27. Tagged date                              : UTC 2020-10-02 11:52:18
  28. Codec configuration box                  : avcC
  29. Audio
  30. ID                                       : 2
  31. Format                                   : AAC LC
  32. Format/Info                              : Advanced Audio Codec Low Complexity
  33. Codec ID                                 : mp4a-40-2
  34. Duration                                 : 1 h 20 min
  35. Duration_LastFrame                       : -11 ms
  36. Bit rate mode                            : Constant
  37. Bit rate                                 : 224 kb/s
  38. Channel(s)                               : 2 channels
  39. Channel layout                           : L R
  40. Sampling rate                            : 48.0 kHz
  41. Frame rate                               : 46.875 FPS (1024 SPF)
  42. Compression mode                         : Lossy
  43. Stream size                              : 129 MiB (8%)
  44. Language                                 : English
  45. Default                                  : Yes
  46. Alternate group                          : 1
  47. Encoded date                             : UTC 2020-10-02 11:52:18
  48. Tagged date                              : UTC 2020-10-02 11:52:18
复制代码






                                       
                                       

                                       
                                       
                                       




回复

使用道具 举报

懒得打字嘛,点击右侧快捷回复 【右侧内容,后台自定义】
您需要登录后才可以回帖 登录 | 立即加入

本版积分规则

Archiver|小黑屋| 蓝光电影网 |网站地图

Copyright © 2021 Comsenz Inc. Powered by 蓝光电影网

蓝光电影网

本站内容由用户自主分享和转载自互联网,转载目的在于传递更多信息,并不代表本网赞同其观点和对其真实性负责。

如有侵权、违反国家法律政策行为,请联系我们,我们会第一时间及时清除和处理!

举报反馈邮箱:[email protected]

快速回复 返回顶部 返回列表