找回密码

蓝光电影网

查看: 11|回复: 0

[喜剧] 吹牛伯爵历险记 The.Fabulous.Baron.Munchausen.1962.1080p.BluRay.x264-USURY 7.94GB

[复制链接]
蓝光币
382
发表于 2020-8-17 10:56:33 | 显示全部楼层 |阅读模式


◎译  名 吹嘘伯爵历险记 / The Original Fabulous Adventure of Baron Munchausen / 吹嘘大王历险记
◎片  名 Baron Prásil
◎年  代 1962
◎产  地 捷克斯洛伐克
◎类  别 笑剧 / 奇异 / 冒险
◎语  言 捷克语
◎上映日期 1962-09-21(捷克斯洛伐克)
◎IMDb评分  7.7/10 from 1860 users
◎IMDb链接  https://www.imdb.com/title/tt0054665
◎豆瓣评分 8.5/10 from 376 users
◎豆瓣链接 https://movie.douban.com/subject/1940672/
◎片  长 83 分钟
◎导  演 卡尔·齐曼 Karel Zeman
◎编  剧 Jirí Brdecka / Gottfried August Bürger / Josef Kainar / 卡尔·齐曼 Karel Zeman
◎主  演 米洛斯·科佩基 Milos Kopecky
       Rudolf Jelínek
       亚娜·布赖霍娃 Jana Brejchová
       Karel H?ger
       Eduard Kohout
       Jan Werich
       Bohus Záhorsky
       鲁道夫·霍辛斯基 Rudolf Hrusínsky
       Miroslav Holub
       Frantisek Slégr
       Karel Effa
       Josef Hlinomaz
       Zdenek Hodr
       Richard Záhorsky
       Otto Simánek

◎标  签 捷克 | 动画 | 奇异 | 捷克电影 | 1960s | 卡尔·齐曼 | KarelZeman | 东欧
◎简  介

  
  83 min
  1. Video
  2. ID                                       : 1
  3. Format                                   : AVC
  4. Format/Info                              : Advanced Video Codec
  5. Format profile                           : [email protected]
  6. Format settings                          : CABAC / 4 Ref Frames
  7. Format settings, CABAC                   : Yes
  8. Format settings, Reference frames        : 4 frames
  9. Codec ID                                 : V_MPEG4/ISO/AVC
  10. Duration                                 : 1 h 24 min
  11. Bit rate                                 : 12.8 Mb/s
  12. Width                                    : 1 488 pixels
  13. Height                                   : 1 080 pixels
  14. Display aspect ratio                     : 1.378
  15. Frame rate mode                          : Constant
  16. Frame rate                               : 24.000 FPS
  17. Color space                              : YUV
  18. Chroma subsampling                       : 4:2:0
  19. Bit depth                                : 8 bits
  20. Scan type                                : Progressive
  21. Bits/(Pixel*Frame)                       : 0.331
  22. Stream size                              : 7.56 GiB (95%)
  23. Writing library                          : x264 core 152 r2851 ba24899
  24. Encoding settings                        : cabac=1 / ref=4 / deblock=1:-3:-3 / analyse=0x3:0x133 / me=umh / subme=9 / psy=1 / psy_rd=1.00:0.00 / mixed_ref=1 / me_range=16 / chroma_me=1 / trellis=2 / 8x8dct=1 / cqm=0 / deadzone=21,11 / fast_pskip=0 / chroma_qp_offset=-2 / threads=18 / lookahead_threads=1 / sliced_threads=0 / nr=0 / decimate=1 / interlaced=0 / bluray_compat=0 / constrained_intra=0 / bframes=3 / b_pyramid=2 / b_adapt=1 / b_bias=0 / direct=3 / weightb=1 / open_gop=0 / weightp=2 / keyint=240 / keyint_min=24 / scenecut=40 / intra_refresh=0 / rc_lookahead=50 / rc=2pass / mbtree=1 / bitrate=12760 / ratetol=1.0 / qcomp=0.60 / qpmin=0 / qpmax=69 / qpstep=4 / cplxblur=20.0 / qblur=0.5 / ip_ratio=1.40 / aq=1:1.00
  25. Language                                 : English
  26. Default                                  : Yes
  27. Forced                                   : No

  28. Audio
  29. ID                                       : 2
  30. Format                                   : FLAC
  31. Format/Info                              : Free Lossless Audio Codec
  32. Codec ID                                 : A_FLAC
  33. Duration                                 : 1 h 24 min
  34. Bit rate mode                            : Variable
  35. Bit rate                                 : 650 kb/s
  36. Channel(s)                               : 2 channels
  37. Channel layout                           : L R
  38. Sampling rate                            : 48.0 kHz
  39. Frame rate                               : 11.719 FPS (4096 SPF)
  40. Bit depth                                : 24 bits
  41. Compression mode                         : Lossless
  42. Stream size                              : 394 MiB (5%)
  43. Writing library                          : libFLAC 1.2.1 (UTC 2007-09-17)
  44. Language                                 : Czech
  45. Default                                  : Yes
  46. Forced                                   : No

  47. Text
  48. ID                                       : 3
  49. Format                                   : UTF-8
  50. Codec ID                                 : S_TEXT/UTF8
  51. Codec ID/Info                            : UTF-8 Plain Text
  52. Duration                                 : 1 h 22 min
  53. Bit rate                                 : 34 b/s
  54. Count of elements                        : 512
  55. Stream size                              : 21.0 KiB (0%)
  56. Title                                    : English
  57. Language                                 : English
  58. Default                                  : Yes
  59. Forced                                   : Yes

  60. Menu
  61. 00:00:00.000                             : en:00:00:00.000
  62. 00:08:46.542                             : en:00:08:46.542
  63. 00:16:05.542                             : en:00:16:05.542
  64. 00:23:36.917                             : en:00:23:36.917
  65. 00:32:42.000                             : en:00:32:42.000
  66. 00:40:32.125                             : en:00:40:32.125
  67. 00:44:15.792                             : en:00:44:15.792
  68. 00:52:44.583                             : en:00:52:44.583
  69. 00:59:54.875                             : en:00:59:54.875
  70. 01:06:02.083                             : en:01:06:02.083
  71. 01:13:10.667                             : en:01:13:10.667
  72. 01:23:25.667                             : en:01:23:25.667
复制代码




                                       
                                       

                                       
                                       
                                       




回复

使用道具 举报

懒得打字嘛,点击右侧快捷回复 【右侧内容,后台自定义】
您需要登录后才可以回帖 登录 | 立即加入

本版积分规则

Archiver|小黑屋| 蓝光电影网 |网站地图

Copyright © 2021 Comsenz Inc. Powered by 蓝光电影网

蓝光电影网

本站内容由用户自主分享和转载自互联网,转载目的在于传递更多信息,并不代表本网赞同其观点和对其真实性负责。

如有侵权、违反国家法律政策行为,请联系我们,我们会第一时间及时清除和处理!

举报反馈邮箱:[email protected]

快速回复 返回顶部 返回列表