找回密码

蓝光电影网

查看: 9|回复: 0

[喜剧] 变男变女变变变 Switch.1991.720p.BluRay.x264-GUACAMOLE 4.38GB

[复制链接]
蓝光币
386
发表于 2019-10-15 03:55:30 | 显示全部楼层 |阅读模式


◎译  名 变男变女变变变
◎片  名 Switch
◎年  代 1991
◎产  地 美国
◎类  别 笑剧 / 犯罪 / 奇异
◎语  言 英语
◎上映日期 1991-05-10
◎IMDb评分  5.8/10 from 8081 users
◎IMDb链接  https://www.imdb.com/title/tt0103016
◎豆瓣评分 6.8/10 from 420 users
◎豆瓣链接 https://movie.douban.com/subject/1301801/
◎片  长 103 分钟
◎导  演 Blake Edwards
◎编  剧 Blake Edwards
◎主  演 Ellen Barkin
       Jimmy Smits
       JoBeth Williams

◎标  签 笑剧 | 美国 | 奇异 | 美国电影 | 恋爱 | 变男变女变变变 | 1991 | 构想很秒的电影
◎简  介  
  猎艳高手史提夫在一晚的狂欢派对上被三名情妇联手杀死,但天主却因他风骚债太多而拒绝他上天堂。经过史提夫的苦苦请求,天主给他一次更生的机遇,而且许诺只要他找到一个至心爱他的女人之时,他的灵魂即可以上天堂。当史提夫重返人世以后,恶魔为了让这个游戏加倍好玩,让他酿成了一个女人。
  之前的花花令郎史提夫要找一个女人上床垂手可得,可是,酿成女人以后的阿曼达(埃伦·巴尔金 Ellen Barkin 饰)要找一个爱自己的女人可真不那末轻易,她不单要对付生活中碰到的各种未便,而且还要找到一个爱自己的女人,这无疑让影片布满笑剧结果同时又让人满怀期待……
  1. Video
  2. ID                                       : 1
  3. Format                                   : AVC
  4. Format/Info                              : Advanced Video Codec
  5. Format profile                           : [email protected]
  6. Format settings                          : CABAC / 5 Ref Frames
  7. Format settings, CABAC                   : Yes
  8. Format settings, Reference frames        : 5 frames
  9. Codec ID                                 : V_MPEG4/ISO/AVC
  10. Duration                                 : 1 h 43 min
  11. Bit rate                                 : 5 103 kb/s
  12. Width                                    : 1 280 pixels
  13. Height                                   : 720 pixels
  14. Display aspect ratio                     : 16:9
  15. Frame rate mode                          : Constant
  16. Frame rate                               : 23.976 (24000/1001) FPS
  17. Color space                              : YUV
  18. Chroma subsampling                       : 4:2:0
  19. Bit depth                                : 8 bits
  20. Scan type                                : Progressive
  21. Bits/(Pixel*Frame)                       : 0.231
  22. Stream size                              : 3.68 GiB (84%)
  23. Writing library                          : x264 core 157 r2969 d4099dd
  24. Encoding settings                        : cabac=1 / ref=5 / deblock=1:0:0 / analyse=0x3:0x113 / me=umh / subme=8 / psy=1 / psy_rd=1.00:0.00 / mixed_ref=1 / me_range=16 / chroma_me=1 / trellis=2 / 8x8dct=1 / cqm=0 / deadzone=21,11 / fast_pskip=0 / chroma_qp_offset=-2 / threads=22 / lookahead_threads=3 / sliced_threads=0 / nr=0 / decimate=1 / interlaced=0 / bluray_compat=0 / constrained_intra=0 / bframes=3 / b_pyramid=2 / b_adapt=1 / b_bias=0 / direct=1 / weightb=1 / open_gop=0 / weightp=2 / keyint=250 / keyint_min=23 / scenecut=40 / intra_refresh=0 / rc_lookahead=50 / rc=2pass / mbtree=1 / bitrate=5103 / ratetol=1.0 / qcomp=0.60 / qpmin=0 / qpmax=69 / qpstep=4 / cplxblur=20.0 / qblur=0.5 / ip_ratio=1.40 / aq=1:1.00
  25. Default                                  : Yes
  26. Forced                                   : No

  27. Audio
  28. ID                                       : 2
  29. Format                                   : DTS
  30. Format/Info                              : Digital Theater Systems
  31. Codec ID                                 : A_DTS
  32. Duration                                 : 1 h 43 min
  33. Bit rate mode                            : Constant
  34. Bit rate                                 : 960 kb/s
  35. Channel(s)                               : 2 channels
  36. Channel layout                           : L R
  37. Sampling rate                            : 48.0 kHz
  38. Frame rate                               : 93.750 FPS (512 SPF)
  39. Bit depth                                : 24 bits
  40. Compression mode                         : Lossy
  41. Stream size                              : 709 MiB (16%)
  42. Language                                 : English
  43. Default                                  : No
  44. Forced                                   : No

  45. Menu
  46. 00:00:00.000                             : en:00:00:00.000
  47. 00:02:20.140                             : en:00:02:20.140
  48. 00:08:59.039                             : en:00:08:59.039
  49. 00:16:41.834                             : en:00:16:41.834
  50. 00:24:53.075                             : en:00:24:53.075
  51. 00:33:37.265                             : en:00:33:37.265
  52. 00:42:19.078                             : en:00:42:19.078
  53. 00:53:15.275                             : en:00:53:15.275
  54. 01:08:24.183                             : en:01:08:24.183
  55. 01:21:13.786                             : en:01:21:13.786
  56. 01:29:03.839                             : en:01:29:03.839
复制代码




                                       
                                       

                                       
                                       
                                       




回复

使用道具 举报

懒得打字嘛,点击右侧快捷回复 【右侧内容,后台自定义】
您需要登录后才可以回帖 登录 | 立即加入

本版积分规则

Archiver|小黑屋| 蓝光电影网 |网站地图

Copyright © 2021 Comsenz Inc. Powered by 蓝光电影网

蓝光电影网

本站内容由用户自主分享和转载自互联网,转载目的在于传递更多信息,并不代表本网赞同其观点和对其真实性负责。

如有侵权、违反国家法律政策行为,请联系我们,我们会第一时间及时清除和处理!

举报反馈邮箱:[email protected]

快速回复 返回顶部 返回列表