找回密码

蓝光电影网

查看: 34|回复: 0

[喜剧] 变男变女变变变 Switch.1991.1080p.BluRay.REMUX.AVC.DTS-HD.MA.2.0-FGT 25.59GB

[复制链接]
蓝光币
519
发表于 2019-10-15 19:26:28 | 显示全部楼层 |阅读模式


◎译  名 变男变女变变变
◎片  名 Switch
◎年  代 1991
◎产  地 美国
◎类  别 笑剧 / 犯罪 / 奇异
◎语  言 英语
◎上映日期 1991-05-10
◎IMDb评分  5.8/10 from 8081 users
◎IMDb链接  https://www.imdb.com/title/tt0103016
◎豆瓣评分 6.8/10 from 420 users
◎豆瓣链接 https://movie.douban.com/subject/1301801/
◎片  长 103 分钟
◎导  演 Blake Edwards
◎编  剧 Blake Edwards
◎主  演 Ellen Barkin
       Jimmy Smits
       JoBeth Williams

◎标  签 笑剧 | 美国 | 奇异 | 美国电影 | 恋爱 | 变男变女变变变 | 1991 | 构想很秒的电影
◎简  介  
  猎艳高手史提夫在一晚的狂欢派对上被三名情妇联手杀死,但天主却因他风骚债太多而拒绝他上天堂。经过史提夫的苦苦请求,天主给他一次更生的机遇,而且许诺只要他找到一个至心爱他的女人之时,他的灵魂即可以上天堂。当史提夫重返人世以后,恶魔为了让这个游戏加倍好玩,让他酿成了一个女人。
  之前的花花令郎史提夫要找一个女人上床垂手可得,可是,酿成女人以后的阿曼达(埃伦·巴尔金 Ellen Barkin 饰)要找一个爱自己的女人可真不那末轻易,她不单要对付生活中碰到的各种未便,而且还要找到一个爱自己的女人,这无疑让影片布满笑剧结果同时又让人满怀期待……
  1. Video
  2. ID                                       : 1
  3. Format                                   : AVC
  4. Format/Info                              : Advanced Video Codec
  5. Format profile                           : [email protected]
  6. Format settings                          : CABAC / 4 Ref Frames
  7. Format settings, CABAC                   : Yes
  8. Format settings, Reference frames        : 4 frames
  9. Format settings, GOP                     : M=3, N=23
  10. Codec ID                                 : V_MPEG4/ISO/AVC
  11. Duration                                 : 1 h 43 min
  12. Bit rate mode                            : Variable
  13. Bit rate                                 : 34.4 Mb/s
  14. Maximum bit rate                         : 35.0 Mb/s
  15. Width                                    : 1 920 pixels
  16. Height                                   : 1 080 pixels
  17. Display aspect ratio                     : 16:9
  18. Frame rate mode                          : Constant
  19. Frame rate                               : 23.976 (24000/1001) FPS
  20. Standard                                 : NTSC
  21. Color space                              : YUV
  22. Chroma subsampling                       : 4:2:0
  23. Bit depth                                : 8 bits
  24. Scan type                                : Progressive
  25. Bits/(Pixel*Frame)                       : 0.692
  26. Stream size                              : 24.8 GiB (97%)
  27. Title                                    : Switch.1991.1080p.BluRay.REMUX.AVC.DTS-HD.MA.2.0-FGT
  28. Language                                 : English
  29. Default                                  : No
  30. Forced                                   : No
  31. Color range                              : Limited
  32. Color primaries                          : BT.709
  33. Transfer characteristics                 : BT.709
  34. Matrix coefficients                      : BT.709
  35. Audio
  36. ID                                       : 2
  37. Format                                   : DTS XLL
  38. Format/Info                              : Digital Theater Systems
  39. Commercial name                          : DTS-HD Master Audio
  40. Codec ID                                 : A_DTS
  41. Duration                                 : 1 h 43 min
  42. Bit rate mode                            : Variable
  43. Bit rate                                 : 1 068 kb/s
  44. Channel(s)                               : 2 channels
  45. Channel layout                           : L R
  46. Sampling rate                            : 48.0 kHz
  47. Frame rate                               : 93.750 FPS (512 SPF)
  48. Bit depth                                : 16 bits
  49. Compression mode                         : Lossless
  50. Stream size                              : 788 MiB (3%)
  51. Title                                    : Switch.1991.1080p.BluRay.REMUX.AVC.DTS-HD.MA.2.0-FGT
  52. Language                                 : English
  53. Default                                  : Yes
  54. Forced                                   : No
  55. Text
  56. ID                                       : 3
  57. Format                                   : PGS
  58. Muxing mode                              : zlib
  59. Codec ID                                 : S_HDMV/PGS
  60. Codec ID/Info                            : Picture based subtitle format used on BDs/HD-DVDs
  61. Duration                                 : 1 h 39 min
  62. Bit rate                                 : 21.8 kb/s
  63. Count of elements                        : 2641
  64. Stream size                              : 15.5 MiB (0%)
  65. Title                                    : English-PGS
  66. Language                                 : English
  67. Default                                  : Yes
  68. Forced                                   : No
  69. Menu
  70. 00:00:00.000                             : en:Chapter 01
  71. 00:02:20.557                             : en:Chapter 02
  72. 00:08:59.121                             : en:Chapter 03
  73. 00:16:41.542                             : en:Chapter 04
  74. 00:24:52.949                             : en:Chapter 05
  75. 00:33:37.265                             : en:Chapter 06
  76. 00:42:18.953                             : en:Chapter 07
  77. 00:53:14.983                             : en:Chapter 08
  78. 01:08:24.058                             : en:Chapter 09
  79. 01:21:13.618                             : en:Chapter 10
  80. 01:29:03.755                             : en:Chapter 11
复制代码






                                       
                                       

                                       
                                       
                                       




回复

使用道具 举报

懒得打字嘛,点击右侧快捷回复 【右侧内容,后台自定义】
您需要登录后才可以回帖 登录 | 立即加入

本版积分规则

Archiver|小黑屋| 蓝光电影网 |网站地图

Copyright © 2021 Comsenz Inc. Powered by 蓝光电影网

蓝光电影网

本站内容由用户自主分享和转载自互联网,转载目的在于传递更多信息,并不代表本网赞同其观点和对其真实性负责。

如有侵权、违反国家法律政策行为,请联系我们,我们会第一时间及时清除和处理!

举报反馈邮箱:[email protected]

快速回复 返回顶部 返回列表