找回密码

蓝光电影网

查看: 18|回复: 0

[惊悚] 午夜的柳枝 Midnight.in.the.Switchgrass.2021.720p.BluRay.x264.DTS-MT 4.58GB

[复制链接]
蓝光币
382
发表于 2021-7-18 10:46:12 | 显示全部楼层 |阅读模式


◎译  名 半夜的柳枝
◎片  名 Midnight in the Switchgrass
◎年  代 2021
◎产  地 美国
◎类  别 惊悚 / 犯罪
◎语  言 英语
◎上映日期 2021-07-23(美国)
◎豆瓣评分 /10 from 0 users
◎豆瓣链接 https://movie.douban.com/subject/35002786/
◎片  长 99分钟
◎导  演 兰道尔·艾米特 Randall Emmett
◎主  演 梅根·福克斯 Megan Fox
       机关枪凯利 Machine Gun Kelly
       埃米尔·赫斯基 Emile Hirsch
       布鲁斯·威利斯 Bruce Willis
       卢卡斯·哈斯 Lukas Haas
       凯特琳·卡迈克尔 Caitlin Carmichael
       奥利弗·伊莉丝·阿伯克隆比 Olive Elise Abercrombie
       丽迪雅·赫尔 Lydia Hull
       杰基·克鲁兹 Jackie Cruz
       泰勒·乔恩·奥尔森 Tyler Jon Olson
       斯温·特梅尔 Swen Temmel
       希斯蒂妮·史泰龙 Sistine Rose Stallone
       迈克尔·比奇 Michael Beach
       多诺万·W·卡特 Donovan W. Carter
       奥马尔·克鲁兹·索托 Omar Cruz Soto
       大卫·希尔 David Hill
       让·皮埃尔·普拉茨 Jean Pierre Prats
       小戴维·M·桑多瓦尔 David M Sandoval Jr.
◎标  签 犯罪 | 美国 | 2021 | 惊悚 | 2021等评分 | NNN | 等资本 | 梅根·福克斯
◎简  介


  一位联邦观察局奸细和佛罗里达州官员联手观察一系列未侦破的谋杀案。
  1. Video
  2. ID                                       : 1
  3. Format                                   : AVC
  4. Format/Info                              : Advanced Video Codec
  5. Format profile                           : [email protected]
  6. Format settings                          : CABAC / 12 Ref Frames
  7. Format settings, CABAC                   : Yes
  8. Format settings, Reference frames        : 12 frames
  9. Codec ID                                 : V_MPEG4/ISO/AVC
  10. Duration                                 : 1 h 38 min
  11. Bit rate                                 : 5 123 kb/s
  12. Width                                    : 1 280 pixels
  13. Height                                   : 536 pixels
  14. Display aspect ratio                     : 2.40:1
  15. Frame rate mode                          : Constant
  16. Frame rate                               : 23.976 (24000/1001/189150) FPS
  17. Color space                              : YUV
  18. Chroma subsampling                       : 4:2:0
  19. Bit depth                                : 8 bits
  20. Scan type                                : Progressive
  21. Bits/(Pixel*Frame)                       : 0.311
  22. Stream size                              : 3.53 GiB (77%)
  23. Writing library                          : x264 core 157 r2938 2b00a84 [email protected] Mod
  24. Encoding settings                        : cabac=1 / ref=12 / deblock=1:-3:-3 / analyse=0x3:0x133 / me=umh / subme=10 / psy=1 / psy_rd=1.05:0.00 / mixed_ref=1 / me_range=32 / chroma_me=1 / trellis=2 / 8x8dct=1 / cqm=0 / deadzone=21,11 / fast_pskip=0 / chroma_qp_offset=-2 / threads=12 / lookahead_threads=2 / sliced_threads=0 / nr=0 / decimate=0 / interlaced=0 / bluray_compat=0 / constrained_intra=0 / bframes=8 / b_pyramid=2 / b_adapt=2 / b_bias=0 / direct=3 / weightb=1 / open_gop=0 / weightp=2 / keyint=250 / keyint_min=24 / scenecut=40 / intra_refresh=0 / rc_lookahead=250 / rc=crf / mbtree=0 / crf=16.8 / qcomp=0.60 / qpmin=0 / qpmax=69 / qpstep=4 / vbv_maxrate=62500 / vbv_bufsize=78125 / crf_max=0.0 / nal_hrd=none / filler=0 / ip_ratio=1.30 / pb_ratio=1.20 / aq=3:0.80
  25. Language                                 : English
  26. Default                                  : Yes
  27. Forced                                   : No
  28. Color range                              : Limited
  29. Color primaries                          : BT.709
  30. Matrix coefficients                      : BT.709
  31. Audio
  32. ID                                       : 2
  33. Format                                   : DTS
  34. Format/Info                              : Digital Theater Systems
  35. Codec ID                                 : A_DTS
  36. Duration                                 : 1 h 38 min
  37. Bit rate mode                            : Constant
  38. Bit rate                                 : 1 509 kb/s
  39. Channel(s)                               : 6 channels
  40. Channel layout                           : C L R Ls Rs LFE
  41. Sampling rate                            : 48.0 kHz
  42. Frame rate                               : 93.750 FPS (512 SPF)
  43. Bit depth                                : 24 bits
  44. Compression mode                         : Lossy
  45. Stream size                              : 1.04 GiB (23%)
  46. Language                                 : English
  47. Default                                  : Yes
  48. Forced                                   : No
  49. Text
  50. ID                                       : 3
  51. Format                                   : UTF-8
  52. Codec ID                                 : S_TEXT/UTF8
  53. Codec ID/Info                            : UTF-8 Plain Text
  54. Duration                                 : 1 h 29 min
  55. Bit rate                                 : 50 b/s
  56. Count of elements                        : 1020
  57. Stream size                              : 32.6 KiB (0%)
  58. Language                                 : English
  59. Default                                  : Yes
  60. Forced                                   : No
  61. Menu
  62. 00:00:00.000                             : Chapter 01
  63. 00:06:15.875                             : Chapter 02
  64. 00:08:55.744                             : Chapter 03
  65. 00:16:05.882                             : Chapter 04
  66. 00:22:47.616                             : Chapter 05
  67. 00:31:44.486                             : Chapter 06
  68. 00:36:17.884                             : Chapter 07
  69. 00:41:29.320                             : Chapter 08
  70. 00:48:01.170                             : Chapter 09
  71. 00:53:08.685                             : Chapter 10
  72. 01:00:19.324                             : Chapter 11
  73. 01:04:29.616                             : Chapter 12
  74. 01:10:20.675                             : Chapter 13
  75. 01:18:24.116                             : Chapter 14
  76. 01:23:52.444                             : Chapter 15
  77. 01:29:51.970                             : Chapter 16
复制代码







                                       
                                       

                                       
                                       
                                       




回复

使用道具 举报

懒得打字嘛,点击右侧快捷回复 【右侧内容,后台自定义】
您需要登录后才可以回帖 登录 | 立即加入

本版积分规则

Archiver|小黑屋| 蓝光电影网 |网站地图

Copyright © 2021 Comsenz Inc. Powered by 蓝光电影网

蓝光电影网

本站内容由用户自主分享和转载自互联网,转载目的在于传递更多信息,并不代表本网赞同其观点和对其真实性负责。

如有侵权、违反国家法律政策行为,请联系我们,我们会第一时间及时清除和处理!

举报反馈邮箱:[email protected]

快速回复 返回顶部 返回列表